<?xml version="1.0" standalone="no"?>
<!DOCTYPE svg PUBLIC "-//W3C//DTD SVG 1.1//EN" "http://www.w3.org/Graphics/SVG/1.1/DTD/svg11.dtd" >
<svg xmlns="http://www.w3.org/2000/svg" xmlns:xlink="http://www.w3.org/1999/xlink" version="1.1">
<metadata>
Created by FontForge 20200314 at Mon Oct  5 09:52:17 2020
 By Robert Madole
Copyright (c) Font Awesome
</metadata>
<!-- Font Awesome Pro 5.15.1 by @fontawesome - https://fontawesome.com License - https://fontawesome.com/license (Commercial License) --><defs>
<font id="FontAwesome5Duotone-Solid" horiz-adv-x="512" >
  <font-face 
    font-family="Font Awesome 5 Duotone Solid"
    font-weight="900"
    font-stretch="normal"
    units-per-em="512"
    panose-1="2 0 5 3 0 0 0 0 0 0"
    ascent="448"
    descent="-64"
    bbox="-0.106445 -64.0967 640.087 448.034"
    underline-thickness="25"
    underline-position="-50"
    unicode-range="U+0020-10F8FF"
  />
    <missing-glyph />
    <glyph glyph-name="tint-primary" unicode="&#xf043;" horiz-adv-x="352" 
d="M176 0c-61.7783 0.0771484 -111.923 50.2217 -112 112c0 8.83105 7.16895 16 16 16s16 -7.16895 16 -16c0.0498047 -44.1299 35.8701 -79.9502 80 -80c8.83105 0 16 -7.16895 16 -16s-7.16895 -16 -16 -16z" />
    <glyph glyph-name="cut-primary" unicode="&#xf0c4;" horiz-adv-x="448" 
d="M444.48 358.43l-259.12 -259.17c4.28906 -10.8789 6.58594 -22.7764 6.58594 -35.1709c0 -52.9287 -42.9717 -95.9004 -95.9004 -95.9004s-95.8994 42.9717 -95.8994 95.9004s42.9707 95.8994 95.8994 95.8994c4.51758 0 8.96191 -0.3125 13.3145 -0.917969
l216.33 216.359c15.2041 15.2041 36.2266 24.6133 59.4062 24.6133s44.1787 -9.40918 59.3838 -24.6133c2.18066 -2.17285 3.53125 -5.18262 3.53125 -8.50098c0 -3.31934 -1.35059 -6.3252 -3.53125 -8.49902zM96 32c17.6611 0 32 14.3389 32 32s-14.3389 32 -32 32
s-32 -14.3389 -32 -32s14.3389 -32 32 -32z" />
    <glyph glyph-name="magic-primary" unicode="&#xf0d0;" 
d="M359.44 165.36l-220 -220c-5.79297 -5.79102 -13.792 -9.375 -22.6211 -9.375s-16.8369 3.58398 -22.6289 9.375l-84.8105 84.8701c-5.79102 5.79199 -9.37402 13.791 -9.37402 22.6201s3.58301 16.8369 9.37402 22.6299l220 220z" />
    <glyph glyph-name="crop-primary" unicode="&#xf125;" 
d="M416 384c17.6611 0 32 -14.3389 32 -32v-392c0 -13.2461 -10.7539 -24 -24 -24h-48c-13.2461 0 -24 10.7539 -24 24v328h-160v96h224zM0 360c0 13.2461 10.7539 24 24 24h40v-96h-40c-13.2461 0 -24 10.7539 -24 24v48z" />
    <glyph glyph-name="taxi-primary" unicode="&#xf1ba;" 
d="M462 206.45c28.5791 -6.40723 50 -31.9502 50 -62.4502v-48c0 -35.3223 -28.6777 -64 -64 -64h-384c-35.3223 0 -64 28.6777 -64 64v48c0 30.5 21.4209 56.043 50 62.4502l22 84.75c9.59961 35.2002 41.5996 60.7998 76.7998 60.7998h214.4
c35.2002 0 67.2002 -25.5996 76.7998 -60.7998zM133.75 274.36l-17.2002 -66.3604h278.9l-17.3906 67.1396c-2.01953 7.37988 -9.37988 12.8604 -14.8496 12.8604h-214.4c-5.46973 0 -12.8096 -5.48047 -15.0596 -13.6396zM96 96c17.6611 0 32 14.3389 32 32
s-14.3389 32 -32 32s-32 -14.3389 -32 -32s14.3389 -32 32 -32zM416 96c17.6611 0 32 14.3389 32 32s-14.3389 32 -32 32s-32 -14.3389 -32 -32s14.3389 -32 32 -32z" />
    <glyph glyph-name="eye-dropper-primary" unicode="&#xf1fb;" 
d="M483.9 284.1l-77.1006 -77.0996l13.1006 -13.0996c9.39941 -9.40039 9.39941 -24.6006 0 -33.9004l-41 -41c-9.40039 -9.2998 -24.5 -9.2998 -33.9004 0l-162 162c-9.40039 9.40039 -9.40039 24.5996 0 33.9004l41 41c9.40039 9.39941 24.5996 9.39941 33.9004 0
l13.0996 -13.2002l77.0996 77.0996c37.5 37.5 98.3008 37.5 135.801 0s37.5 -98.2002 0 -135.7z" />
    <glyph glyph-name="paint-brush-primary" unicode="&#xf1fc;" 
d="M255 65.3203c0.490234 -3 0.826172 -6.03613 1 -9.12988c0 -76.4209 -52.1299 -120.19 -128 -120.19c-90.0596 0 -128 72.3799 -128 154.73c9.79004 -6.68066 44.1396 -34.3506 55.25 -34.3506c0.0898438 -0.000976562 0.178711 -0.00195312 0.269531 -0.00195312
c6.57715 0 12.1777 4.16406 14.3203 10.002c20.6602 54.4404 57.0703 69.7197 97.1904 72.2998z" />
    <glyph glyph-name="bus-primary" unicode="&#xf207;" 
d="M488 320c13.2461 0 24 -10.7539 24 -24v-80c0 -13.2461 -10.7539 -24 -24 -24h-8v-160c0 -17.6611 -14.3389 -32 -32 -32h-384c-17.6611 0 -32 14.3389 -32 32v160h-8c-13.2461 0 -24 10.7539 -24 24v80c0 13.2461 10.7539 24 24 24h8v48c0 44.7998 99.2002 80 224 80
s224 -35.2002 224 -80v-48h8zM96 320v-128c0 -17.6611 14.3389 -32 32 -32h256c17.6611 0 32 14.3389 32 32v128c0 17.6611 -14.3389 32 -32 32h-256c-17.6611 0 -32 -14.3389 -32 -32zM112 48c17.6611 0 32 14.3389 32 32s-14.3389 32 -32 32s-32 -14.3389 -32 -32
s14.3389 -32 32 -32zM400 48c17.6611 0 32 14.3389 32 32s-14.3389 32 -32 32s-32 -14.3389 -32 -32s14.3389 -32 32 -32z" />
    <glyph glyph-name="bed-primary" unicode="&#xf236;" horiz-adv-x="640" 
d="M640 160v-144c0 -8.83105 -7.16895 -16 -16 -16h-32c-8.83105 0 -16 7.16895 -16 16v48h-512v-48c0 -8.83105 -7.16895 -16 -16 -16h-32c-8.83105 0 -16 7.16895 -16 16v352c0 8.83105 7.16895 16 16 16h32c8.83105 0 16 -7.16895 16 -16v-208h576z" />
    <glyph glyph-name="map-primary" unicode="&#xf279;" horiz-adv-x="576" 
d="M0 330.34c0.0224609 13.4482 8.33984 24.9502 20.1201 29.6602l139.88 56v-384l-138.06 -62.8604c-1.83496 -0.733398 -3.8457 -1.14355 -5.94043 -1.14355c-8.83105 0 -16 7.16992 -16 16v0.00390625v346.34zM554.06 414.84
c1.83496 0.733398 3.8457 1.14355 5.94043 1.14355c8.8252 0 15.9912 -7.16016 16 -15.9834v-346.34c-0.000976562 -13.4707 -8.3252 -24.9941 -20.1201 -29.71l-139.88 -55.9502v384z" />
    <glyph glyph-name="pen-primary" unicode="&#xf304;" 
d="M12.8496 76.8896l277.931 277.87l128 -128l-278 -278l-114.141 -12.5996c-0.874023 -0.0966797 -1.73828 -0.169922 -2.6377 -0.169922c-13.2461 0 -24 10.7539 -24 24c0 0.905273 0.0498047 1.7998 0.148438 2.67969z" />
    <glyph glyph-name="pen-alt-primary" unicode="&#xf305;" 
d="M336 309.51l82.7695 -82.7695l-196.77 -196.79c-51.1611 -51.1602 -119.559 -85.4336 -195.34 -93.7998c-0.880859 -0.0986328 -1.77539 -0.148438 -2.68262 -0.148438c-13.2461 0 -24 10.7539 -24 24c0 0.90625 0.0742188 1.77734 0.172852 2.6582v0.229492
c8.43066 75.6982 42.7129 144.011 93.8496 195.11l151.52 151.52l-22.6299 22.6201l-101.819 -101.819c-2.89648 -2.89746 -6.89746 -4.69043 -11.3135 -4.69043s-8.4209 1.79297 -11.3164 4.69043l-22.6309 22.6299c-2.89355 2.89551 -4.68457 6.89453 -4.68457 11.3076
s1.79102 8.41602 4.68457 11.3125l118.78 118.79c7.24023 7.2373 17.2383 11.7168 28.2744 11.7168s21.0459 -4.47949 28.2861 -11.7168z" />
    <glyph glyph-name="feather-primary" unicode="&#xf52d;" 
d="M24 -64h-0.0605469c-13.2451 0 -24 10.7539 -24 24c0 6.6377 2.69922 12.6533 7.06055 17l264 264c4.35156 4.35156 10.3623 7.04492 16.9971 7.04492c13.2686 0 24.041 -10.7725 24.041 -24.042c0 -6.63379 -2.68652 -12.6514 -7.03809 -17.0029l-264 -264
c-4.3291 -4.32617 -10.3066 -7.00391 -16.9053 -7.00391c-0.0302734 0 -0.0634766 0.00390625 -0.0947266 0.00390625z" />
    <glyph glyph-name="archway-primary" unicode="&#xf557;" horiz-adv-x="576" 
d="M576 -16v-32c0 -8.83105 -7.16895 -16 -16 -16h-160c-8.83105 0 -16 7.16895 -16 16v176c0 52.9834 -43.0166 96 -96 96s-96 -43.0166 -96 -96v-176c0 -8.83105 -7.16895 -16 -16 -16h-160c-8.83105 0 -16 7.16895 -16 16v32c0 8.83105 7.16895 16 16 16h16v352h512v-352
h16c8.83105 0 16 -7.16895 16 -16z" />
    <glyph glyph-name="atlas-primary" unicode="&#xf558;" horiz-adv-x="448" 
d="M224 350.69c7.69043 -7.4502 20.7695 -34.4307 23.4404 -78.6904h-46.8701c2.66016 44.2695 15.7393 71.2402 23.4297 78.6904zM318.38 240c-5.32324 -31.1582 -25.623 -57.2422 -53.2998 -70.4102c7.66992 19.0605 12.7197 43.4102 14.21 70.4102h39.0898zM318.38 272
h-39.0898c-1.49023 27 -6.53027 51.3496 -14.21 70.4102c27.6748 -13.1709 47.9727 -39.2529 53.2998 -70.4102zM182.92 169.59c-27.6768 13.168 -47.9766 39.252 -53.2998 70.4102h39.0898c1.49023 -27 6.53027 -51.3496 14.21 -70.4102zM247.43 240
c-2.66016 -44.2598 -15.7393 -71.2402 -23.4395 -78.6904c-7.69043 7.4502 -20.7705 34.4307 -23.4307 78.6904h46.8701zM96 64c-16 0 -32 -12.7998 -32 -32s12.7998 -32 32 -32h328c13.2461 0 24 -10.7539 24 -24v-16c0 -13.2461 -10.7539 -24 -24 -24h-328
c-52.9834 0 -96 43.0166 -96 96v320c0 52.9834 43.0166 96 96 96h320c17.6611 0 32 -14.3389 32 -32v-328c0 -13.2461 -10.7539 -24 -24 -24h-328zM224 384c-70.6455 0 -128 -57.3545 -128 -128s57.3545 -128 128 -128s128 57.3545 128 128s-57.3545 128 -128 128z
M182.92 342.41c-7.67969 -19.0605 -12.7197 -43.4102 -14.21 -70.4102h-39.0898c5.32324 31.1582 25.623 57.2422 53.2998 70.4102z" />
    <glyph glyph-name="backspace-primary" unicode="&#xf55a;" horiz-adv-x="640" 
d="M491.31 129.94c2.89746 -2.89648 4.69043 -6.89746 4.69043 -11.3135s-1.79297 -8.4209 -4.69043 -11.3174l-22.6191 -22.6191c-2.89648 -2.89746 -6.89746 -4.69043 -11.3135 -4.69043s-8.4209 1.79297 -11.3174 4.69043l-62.0596 62.0596l-62.0596 -62.0596
c-2.89648 -2.89746 -6.89746 -4.69043 -11.3135 -4.69043s-8.4209 1.79297 -11.3174 4.69043l-22.6191 22.6191c-2.89746 2.89648 -4.69043 6.89746 -4.69043 11.3135s1.79297 8.4209 4.69043 11.3174l62.0596 62.0596l-62.0596 62.0596
c-2.89746 2.89648 -4.69043 6.89746 -4.69043 11.3135s1.79297 8.4209 4.69043 11.3174l22.6191 22.6191c2.89648 2.89746 6.89746 4.69043 11.3135 4.69043s8.4209 -1.79297 11.3174 -4.69043l62.0596 -62.0596l62.0596 62.0596
c2.89648 2.89746 6.89746 4.69043 11.3135 4.69043s8.4209 -1.79297 11.3174 -4.69043l22.6191 -22.6191c2.89746 -2.89648 4.69043 -6.89746 4.69043 -11.3135s-1.79297 -8.4209 -4.69043 -11.3174l-62.0596 -62.0596z" />
    <glyph glyph-name="bezier-curve-primary" unicode="&#xf55b;" horiz-adv-x="640" 
d="M208 360v-72c0.0166016 -9.41699 2.12793 -18.4102 5.83984 -26.4404c-34.2656 -24.2891 -59.666 -59.9717 -71 -101.56h-49.3994c13.7402 64.7031 54.209 119.497 109.56 152h-79.75c-9.49219 -23.4658 -32.5039 -39.9609 -59.3564 -39.9609
c-35.3223 0 -64 28.6768 -64 64c0 35.3223 28.6777 64 64 64c26.8525 0 49.8643 -16.5732 59.3564 -40.0391h84.75zM576 400c0.0205078 0 0.0664062 -0.0390625 0.0869141 -0.0390625c35.3223 0 64 -28.6768 64 -64c0 -35.3223 -28.6777 -64 -64 -64
c-26.8525 0 -49.8643 16.5732 -59.3564 40.0391h-79.7305c55.335 -32.5107 95.7881 -87.3027 109.52 -152h-49.3994c-11.334 41.5879 -36.7344 77.2705 -71 101.56c3.7207 8.0293 5.8457 17.0244 5.87988 26.4404v72h84.75c9.46777 23.4541 32.4248 39.9863 59.25 40z" />
    <glyph glyph-name="bong-primary" unicode="&#xf55c;" horiz-adv-x="448" 
d="M443.31 230.63c2.89746 -2.89648 4.69043 -6.90137 4.69043 -11.3174s-1.79297 -8.41602 -4.69043 -11.3125l-11.2998 -11.3203c-2.89648 -2.89648 -6.90137 -4.68945 -11.3174 -4.68945s-8.41602 1.79297 -11.3125 4.68945l-9.37988 9.37988l-43.4404 -43.3994
c17.3438 -28.7549 27.3242 -62.8506 27.3242 -98.8496c0 -34.6348 -9.23828 -67.1289 -25.3838 -95.1504c-11.1133 -19.4775 -32.0098 -32.5713 -56 -32.6602h-221c-23.9883 0.0927734 -44.8838 13.1855 -56 32.6602c-16.1406 27.9385 -25.5 60.5557 -25.5 95.1133v0.226562
c0 71 38.6699 132.9 96 166.11v153.89h-16c-8.83105 0 -16 7.16895 -16 16v31.7402c0 8.83008 7.16895 16 16 16l224 0.259766c8.83105 0 16 -7.16895 16 -16v-31.7402c0 -8.83008 -7.16895 -16 -16 -16h-16v-154.16c14.1797 -8.2373 27.0459 -18.0801 38.6504 -29.5195
l39.4092 39.4102l-9.37988 9.37988c-2.89648 2.89648 -4.68945 6.90137 -4.68945 11.3174s1.79297 8.41602 4.68945 11.3125l11.3105 11.3203c2.89648 2.89648 6.90137 4.68945 11.3174 4.68945s8.41602 -1.79297 11.3125 -4.68945zM316.92 -7.37012
c12.0771 20.9727 19.0791 45.4521 19.0801 71.3701c0 93.7803 -79.8496 129.09 -96 138.44v181.369h-96v-181.369c-16.1504 -9.35059 -96 -44.6602 -96 -138.44c0.000976562 -25.918 7.00293 -50.3877 19.0801 -71.3604c2.83594 -5.08105 8.21875 -8.52832 14.4199 -8.63965
h221c6.19922 0.109375 11.582 3.55273 14.4199 8.62988z" />
    <glyph glyph-name="brush-primary" unicode="&#xf55d;" horiz-adv-x="384" 
d="M0 160h384v-32c0 -35.3223 -28.6777 -64 -64 -64h-64v-64c0 -35.3223 -28.6777 -64 -64 -64s-64 28.6777 -64 64v64h-64c-35.3223 0 -64 28.6777 -64 64v32zM192 -24c13.2461 0 24 10.7539 24 24s-10.7539 24 -24 24s-24 -10.7539 -24 -24s10.7539 -24 24 -24z" />
    <glyph glyph-name="bus-alt-primary" unicode="&#xf55e;" 
d="M488 320c13.2461 0 24 -10.7539 24 -24v-80c0 -13.2461 -10.7539 -24 -24 -24h-8v-160c0 -17.6611 -14.3389 -32 -32 -32h-384c-17.6611 0 -32 14.3389 -32 32v160h-8c-13.2461 0 -24 10.7539 -24 24v80c0 13.2461 10.7539 24 24 24h8v48c0 44.7998 99.2002 80 224 80
s224 -35.2002 224 -80v-48h8zM112 48c17.6611 0 32 14.3389 32 32s-14.3389 32 -32 32s-32 -14.3389 -32 -32s14.3389 -32 32 -32zM240 160v160h-112c-17.6611 0 -32 -14.3389 -32 -32v-96c0 -17.6611 14.3389 -32 32 -32h112zM168 352h176c4.41504 0 8 3.58496 8 8v16
c0 4.41504 -3.58496 8 -8 8h-176c-4.41504 0 -8 -3.58496 -8 -8v-16c0 -4.41504 3.58496 -8 8 -8zM272 320v-160h112c17.6611 0 32 14.3389 32 32v96c0 17.6611 -14.3389 32 -32 32h-112zM400 48c17.6611 0 32 14.3389 32 32s-14.3389 32 -32 32s-32 -14.3389 -32 -32
s14.3389 -32 32 -32z" />
    <glyph glyph-name="cannabis-primary" unicode="&#xf55f;" 
d="M272 168v-224c0 -4.41504 -3.58496 -8 -8 -8h-16c-4.41504 0 -8 3.58496 -8 8v224c0 4.41504 3.58496 8 8 8h16c4.41504 0 8 -3.58496 8 -8z" />
    <glyph glyph-name="concierge-bell-primary" unicode="&#xf562;" 
d="M480 96h-448c0 123.71 100.29 224 224 224s224 -100.29 224 -224z" />
    <glyph glyph-name="cookie-primary" unicode="&#xf563;" 
d="M368 176c17.6611 0 32 -14.3389 32 -32s-14.3389 -32 -32 -32s-32 14.3389 -32 32s14.3389 32 32 32zM208 304c17.6611 0 32 -14.3389 32 -32s-14.3389 -32 -32 -32s-32 14.3389 -32 32s14.3389 32 32 32zM176 144c17.6611 0 32 -14.3389 32 -32s-14.3389 -32 -32 -32
s-32 14.3389 -32 32s14.3389 32 32 32z" />
    <glyph glyph-name="cookie-bite-primary" unicode="&#xf564;" 
d="M368 176c17.6611 0 32 -14.3389 32 -32s-14.3389 -32 -32 -32s-32 14.3389 -32 32s14.3389 32 32 32zM208 304c17.6611 0 32 -14.3389 32 -32s-14.3389 -32 -32 -32s-32 14.3389 -32 32s14.3389 32 32 32zM176 144c17.6611 0 32 -14.3389 32 -32s-14.3389 -32 -32 -32
s-32 14.3389 -32 32s14.3389 32 32 32z" />
    <glyph glyph-name="crop-alt-primary" unicode="&#xf565;" 
d="M416 384c17.6611 0 32 -14.3389 32 -32v-392c0 -13.2461 -10.7539 -24 -24 -24h-48c-13.2461 0 -24 10.7539 -24 24v328h-160v96h224zM0 360c0 13.2461 10.7539 24 24 24h40v-96h-40c-13.2461 0 -24 10.7539 -24 24v48z" />
    <glyph glyph-name="digital-tachograph-primary" unicode="&#xf566;" horiz-adv-x="640" 
d="M608 352c17.6611 0 32 -14.3389 32 -32v-256c0 -17.6611 -14.3389 -32 -32 -32h-576c-17.6611 0 -32 14.3389 -32 32v256c0 17.6611 14.3389 32 32 32h576zM304 96v8c0 4.41504 -3.58496 8 -8 8h-224c-4.41504 0 -8 -3.58496 -8 -8v-8c0 -4.41504 3.58496 -8 8 -8h224
c4.41504 0 8 3.58496 8 8zM72 160c0 -4.41504 3.58496 -8 8 -8h16c4.41504 0 8 3.58496 8 8v16c0 4.41504 -3.58496 8 -8 8h-16c-4.41504 0 -8 -3.58496 -8 -8v-16zM136 160c0 -4.41504 3.58496 -8 8 -8h16c4.41504 0 8 3.58496 8 8v16c0 4.41504 -3.58496 8 -8 8h-16
c-4.41504 0 -8 -3.58496 -8 -8v-16zM200 160c0 -4.41504 3.58496 -8 8 -8h16c4.41504 0 8 3.58496 8 8v16c0 4.41504 -3.58496 8 -8 8h-16c-4.41504 0 -8 -3.58496 -8 -8v-16zM264 160c0 -4.41504 3.58496 -8 8 -8h16c4.41504 0 8 3.58496 8 8v16c0 4.41504 -3.58496 8 -8 8
h-16c-4.41504 0 -8 -3.58496 -8 -8v-16zM304 224v48c0 8.83105 -7.16895 16 -16 16h-208c-8.83105 0 -16 -7.16895 -16 -16v-48c0 -8.83105 7.16895 -16 16 -16h208c8.83105 0 16 7.16895 16 16zM576 96v8c0 4.41504 -3.58496 8 -8 8h-224c-4.41504 0 -8 -3.58496 -8 -8v-8
c0 -4.41504 3.58496 -8 8 -8h224c4.41504 0 8 3.58496 8 8z" />
    <glyph glyph-name="drafting-compass-primary" unicode="&#xf568;" 
d="M457.21 103.25l54.79 -94.9004l-7 -58.25c-0.967773 -7.90723 -7.72656 -14.0479 -15.8936 -14.0479c-2.23438 0 -4.36328 0.458984 -6.29688 1.28809l-53.9492 23l-54.5 94.4004c30.1318 11.9814 58.0449 28.4131 82.8496 48.5098zM340.9 304.7l50.9795 -88.3203
c-22.6436 -22.7119 -50.998 -39.7236 -82.6494 -48.8496l-50.4902 87.4697h-2.24023c-1.08008 0 -2.15039 0.0595703 -3.21973 0.0595703l-170.11 -294.76l-54 -23c-1.92676 -0.823242 -4.05957 -1.26953 -6.28516 -1.26953c-8.17773 0 -14.9307 6.14844 -15.8848 14.0693
l-7 58.25l171.61 297.23c-7.37012 13.6289 -11.6748 29.2266 -11.6748 45.7959c0 53.2598 43.2402 96.5 96.5 96.5s96.5 -43.2402 96.5 -96.5c0 -16.9258 -4.36719 -32.8398 -12.0352 -46.6758zM256.5 320c17.3857 0 31.5 14.1143 31.5 31.5s-14.1143 31.5 -31.5 31.5
s-31.5 -14.1143 -31.5 -31.5s14.1143 -31.5 31.5 -31.5z" />
    <glyph glyph-name="drum-steelpan-primary" unicode="&#xf56a;" horiz-adv-x="576" 
d="M288 416c159.06 0 288 -57.3096 288 -128v-192c0 -70.6904 -128.94 -128 -288 -128s-288 57.3096 -288 128v192c0 70.6904 128.94 128 288 128zM205 257.64c1.65039 6.10938 2.49316 12.5908 2.49316 19.2188c0 13.4072 -3.60352 25.9805 -9.89355 36.8018
l-25.5996 44.3398c-73.8896 -13.6104 -124 -39.8398 -124 -70c0 -30.7803 52.2305 -57.46 128.69 -70.8398c13.6738 9.66602 23.8057 23.8936 28.3096 40.4795zM288 208c21.0801 0 41.4102 1 60.8896 2.7002c-8.05957 26.1299 -32.1494 45.2998 -60.8896 45.2998
s-52.8301 -19.1699 -60.8896 -45.2998c19.4795 -1.7002 39.8096 -2.7002 60.8896 -2.7002zM352 352v13c-20.4004 1.91992 -41.7998 3 -64 3s-43.5996 -1.12012 -64 -3v-13c0 -35.3223 28.6777 -64 64 -64s64 28.6777 64 64zM398.93 217.1
c76.6699 13.3604 129.07 40.0703 129.07 70.9004c0 30.21 -50.2803 56.5 -124.44 70.0996l-25.6299 -44.4199c-6.29883 -10.8027 -10.0234 -23.4004 -10.0234 -36.7959c0 -24.6904 12.2617 -46.5391 31.0234 -59.7842z" />
    <glyph glyph-name="feather-alt-primary" unicode="&#xf56b;" 
d="M24 -64h-0.0605469c-13.2451 0 -24 10.7539 -24 24c0 6.6377 2.69922 12.6533 7.06055 17l264 264c4.35156 4.35156 10.3623 7.04492 16.9971 7.04492c13.2686 0 24.041 -10.7725 24.041 -24.042c0 -6.63379 -2.68652 -12.6514 -7.03809 -17.0029l-264 -264
c-4.3291 -4.32617 -10.3066 -7.00391 -16.9053 -7.00391c-0.0302734 0 -0.0634766 0.00390625 -0.0947266 0.00390625z" />
    <glyph glyph-name="fill-primary" unicode="&#xf575;" 
d="M502.63 231c5.79688 -5.79297 9.38477 -13.8047 9.38477 -22.6396c0 -8.83887 -3.5918 -16.8467 -9.39453 -22.6406l-221.57 -221.569c-17.376 -17.3701 -41.3975 -28.1191 -67.8828 -28.1191c-26.4863 0 -50.4805 10.749 -67.8574 28.1191l-117.189 117.189
c-17.373 17.377 -28.124 41.4004 -28.124 67.8887s10.751 50.4854 28.124 67.8613l94.7598 94.7598l-86.1895 86.1807c-2.89453 2.89551 -4.68555 6.89844 -4.68555 11.3115c0 4.41406 1.79102 8.41211 4.68555 11.3086l22.6191 22.6191
c2.89648 2.89453 6.89941 4.68555 11.3125 4.68555c4.41406 0 8.41211 -1.79102 11.3076 -4.68555l86.1807 -86.1895l81.5801 81.5801c5.79199 5.79102 13.7998 9.37402 22.6289 9.37402s16.8281 -3.58301 22.6211 -9.37402zM235.78 9.38965l198.96 198.96l-162.42 162.41
l-58.9199 -58.9297l58.5996 -58.5996c5.78516 -5.79199 9.35547 -13.7959 9.35547 -22.6201c0 -17.6611 -14.3389 -32 -32 -32c-8.83691 0 -16.8418 3.58984 -22.6357 9.38965l-58.5996 58.5801l-94.75 -94.7402c-5.78809 -5.79199 -9.37012 -13.7979 -9.37012 -22.624
c0 -8.82715 3.58203 -16.8242 9.37012 -22.6162l117.189 -117.21c5.79102 -5.78125 13.793 -9.35938 22.6152 -9.35938c8.82129 0 16.8145 3.57812 22.6055 9.35938z" />
    <glyph glyph-name="fill-drip-primary" unicode="&#xf576;" horiz-adv-x="576" 
d="M503.63 231c5.79688 -5.79297 9.38477 -13.8047 9.38477 -22.6396c0 -8.83887 -3.5918 -16.8467 -9.39453 -22.6406l-221.57 -221.569c-17.376 -17.3701 -41.3975 -28.1191 -67.8828 -28.1191c-26.4863 0 -50.4805 10.749 -67.8574 28.1191l-117.189 117.189
c-17.373 17.377 -28.124 41.4004 -28.124 67.8887s10.751 50.4854 28.124 67.8613l94.7598 94.7598l-86.1895 86.1807c-2.89453 2.89551 -4.68555 6.89844 -4.68555 11.3115c0 4.41406 1.79102 8.41211 4.68555 11.3086l22.6191 22.6191
c2.89648 2.89453 6.89941 4.68555 11.3125 4.68555c4.41406 0 8.41211 -1.79102 11.3076 -4.68555l86.1807 -86.1895l81.5801 81.5801c5.79199 5.79102 13.7998 9.37402 22.6289 9.37402s16.8281 -3.58301 22.6211 -9.37402zM236.78 9.38965l198.96 198.96l-162.42 162.41
l-58.9199 -58.9297l58.5996 -58.5996c5.78516 -5.79199 9.35547 -13.7959 9.35547 -22.6201c0 -17.6611 -14.3389 -32 -32 -32c-8.83691 0 -16.8418 3.58984 -22.6357 9.38965l-58.5996 58.5801l-94.75 -94.7402c-5.78809 -5.79199 -9.37012 -13.7979 -9.37012 -22.624
c0 -8.82715 3.58203 -16.8242 9.37012 -22.6162l117.189 -117.21c5.79102 -5.78125 13.793 -9.35938 22.6152 -9.35938c8.82129 0 16.8145 3.57812 22.6055 9.35938z" />
    <glyph glyph-name="fingerprint-primary" unicode="&#xf577;" 
d="M466 335.15c3.02246 -4.01465 4.83984 -9.05176 4.83984 -14.459c0 -13.2461 -10.7539 -24 -24 -24c-8.42188 0 -15.8359 4.34766 -20.1201 10.9189c-38.8037 55.0996 -102.442 91.2295 -174.62 92.3896c-56.3398 0.780273 -108.92 -20.0898 -147.659 -58.8701
c-34.792 -34.5654 -56.3164 -82.3994 -56.3164 -135.269c0 -1.24707 0.0117188 -2.49023 0.0361328 -3.73145l-0.160156 -23.6396c-0.376953 -12.918 -10.9814 -23.2998 -23.9893 -23.2998h-0.0107422h-0.719727c-12.9131 0.381836 -23.291 10.9727 -23.291 23.9775
c0 0.238281 0.00390625 0.475586 0.0107422 0.711914l0.129883 21.4697c-0.0292969 1.54395 -0.0800781 3.04102 -0.0800781 4.5918c0 66.0742 26.9287 125.909 70.4004 169.118c48.0098 48.0303 112.55 73.7607 182.35 72.9404
c88.1309 -1.42871 165.831 -45.5586 213.2 -112.85zM254 365.88c101.12 -1.5 184.63 -83.0801 186.19 -181.88c0.0722656 -4.78418 0.142578 -8.36035 0.142578 -13.1611c0 -36.0703 -2.05762 -71.6641 -6.06348 -106.669
c-1.06934 -9.22949 -9.85938 -23.0596 -26.5791 -21.1104c-11.9492 1.37012 -21.2676 11.5059 -21.2676 23.8193c0 0.933594 0.0527344 1.85547 0.157227 2.76074c3.77832 33.0977 5.68848 65.5918 5.68848 99.6934c0 4.6543 -0.0361328 9.2998 -0.108398 13.9365
c-1.15039 73.0801 -63.4502 133.45 -138.88 134.58c-0.550781 0.00683594 -0.991211 0.00195312 -1.54395 0.00195312c-11.1602 0 -22.0254 -1.27637 -32.4561 -3.69141c-1.7793 -0.421875 -3.61035 -0.647461 -5.51758 -0.647461
c-13.249 0 -24.0059 10.7568 -24.0059 24.0059c0 11.3418 7.88281 20.8564 18.4629 23.3613c13.54 3.28418 27.5283 5.03809 42.0723 5.03809c1.23926 0 2.47461 -0.0126953 3.70801 -0.0380859zM255.22 283.77c56.9697 -0.839844 104.061 -46.9199 104.94 -102.77
c0.0673828 -4.43262 0.121094 -7.83398 0.121094 -12.2822c0 -47.6064 -3.9082 -94.3066 -11.4209 -139.798c-0.770508 -4.66992 -7.58008 -23.0996 -27.5801 -19.7695c-11.373 1.88281 -20.0801 11.752 -20.0801 23.6543c0 1.33691 0.109375 2.64844 0.319336 3.92578
c7.05957 42.8115 10.7129 85.7715 10.7129 130.571c0 4.33398 -0.0341797 8.66016 -0.102539 12.9785c-0.469727 30.1299 -26.3096 55 -57.6201 55.4697c-34.5293 0.150391 -54.8594 -26.3896 -54.4502 -52.3398c0.0595703 -3.74707 0.0771484 -6.7832 0.0771484 -10.5439
c0 -48.7979 -4.97559 -96.4434 -14.4463 -142.456c-2.11914 -11.085 -11.874 -19.5088 -23.5723 -19.5088c-13.2461 0 -24 10.7539 -24 24c0 1.7959 0.197266 3.54492 0.572266 5.22852c8.8125 42.8496 13.4531 86.5479 13.4531 131.99
c0 3.52637 -0.0283203 7.04688 -0.0839844 10.5596c-0.839844 54.0205 41.9004 101.16 103.16 101.09z" />
    <glyph glyph-name="glass-martini-alt-primary" unicode="&#xf57b;" 
d="M405.12 384h-298.28l149.16 -149.13zM478.18 448c30.0508 0 45.1006 -36.3398 23.8203 -57.6396l-214 -214v-192.36h56c22.0762 0 40 -17.9238 40 -40c0 -4.41504 -3.58496 -8 -8 -8h-240c-4.41504 0 -8 3.58496 -8 8c0 22.0762 17.9238 40 40 40h56v192.4l-214 214
c-21.3203 21.2598 -6.26953 57.5996 23.7803 57.5996h444.399z" />
    <glyph glyph-name="grin-squint-tears-primary" unicode="&#xf586;" 
d="M102.42 47.9004c0.418945 0.0644531 0.838867 0.106445 1.27539 0.106445c4.58691 0 8.31055 -3.72363 8.31055 -8.30957c0 -0.407227 -0.0292969 -0.806641 -0.0859375 -1.19727c-3.2998 -22.5996 -12 -73.5 -26.7998 -88.2998
c-19.2002 -19.2002 -50.6006 -18.9004 -70.2002 0.700195c-19.5996 19.5996 -19.9004 51.0996 -0.799805 70.1992c14.7998 14.8008 65.7002 23.6006 88.2998 26.8008zM196.42 215c0.90625 0.21875 1.8457 0.341797 2.81934 0.341797c6.62305 0 12 -5.37695 12 -12
c0 -0.978516 -0.117188 -1.93066 -0.338867 -2.8418l-22.6006 -90.5c-3.09961 -13.2002 -22.2002 -11.7002 -23.5 1.7002l-4.7998 52.2998l-52.2803 4.7998c-13.3994 1.2002 -14.8994 20.2998 -1.7998 23.6006zM336.42 283.1
c13.4004 -1.19922 14.9004 -20.2998 1.7998 -23.5996l-90.5 -22.5996c-0.912109 -0.222656 -1.85938 -0.347656 -2.83984 -0.347656c-6.62305 0 -12 5.37695 -12 12c0 0.981445 0.118164 1.93457 0.339844 2.84766l22.5 90.5996
c3.2998 13.2002 22.4004 11.5 23.6006 -1.7998l4.7998 -52.2998zM497.22 433.1c19.6006 -19.5996 19.9004 -51 0.700195 -70.1992c-14.7998 -14.8008 -65.7002 -23.6006 -88.2998 -26.8008c-0.418945 -0.0644531 -0.838867 -0.106445 -1.27539 -0.106445
c-4.58691 0 -8.31055 3.72363 -8.31055 8.30957c0 0.407227 0.0292969 0.806641 0.0859375 1.19727c3.2998 22.5996 12 73.5 26.7998 88.2998c19.0801 19.2002 50.7002 18.9004 70.2998 -0.700195z" />
    <glyph glyph-name="grin-tears-primary" unicode="&#xf588;" horiz-adv-x="640" 
d="M102.42 191.9c0.418945 0.0644531 0.838867 0.106445 1.27539 0.106445c4.58691 0 8.31055 -3.72363 8.31055 -8.30957c0 -0.407227 -0.0292969 -0.806641 -0.0859375 -1.19727c-3.2998 -22.5996 -12 -73.5 -26.7998 -88.2998
c-19.2002 -19.2002 -50.6006 -18.9004 -70.2002 0.700195c-19.5996 19.5996 -19.9004 51.0996 -0.799805 70.1992c14.7998 14.8008 65.7002 23.6006 88.2998 26.8008zM240 296c23.8203 0 52.7197 -29.2998 56 -71.4004c0.700195 -8.59961 -10.7998 -12 -14.9004 -4.5
l-9.5 17c-7.69922 13.7002 -19.1992 21.6006 -31.5 21.6006c-12.2998 0 -23.7998 -7.90039 -31.5 -21.6006l-9.5 -17c-4.19922 -7.39941 -15.5996 -4 -14.8994 4.5c3.09961 42.1006 32 71.4004 55.7998 71.4004zM625.8 165.1
c19.1797 -19.0996 18.7998 -50.6992 -0.799805 -70.2998c-19.5996 -19.5996 -51 -19.8994 -70.2002 -0.700195c-14.7998 14.8008 -23.5996 65.7002 -26.7998 88.3008c-0.0576172 0.396484 -0.0957031 0.793945 -0.0957031 1.20703c0 4.625 3.75488 8.37988 8.37988 8.37988
c0.413086 0 0.818359 -0.0292969 1.21582 -0.0869141c22.5996 -3.30078 73.5 -12 88.2998 -26.8008zM400 296c23.8203 0 52.7197 -29.2998 56 -71.4004c0.700195 -8.59961 -10.7998 -12 -14.9004 -4.5l-9.5 17c-7.69922 13.7002 -19.1992 21.6006 -31.5 21.6006
c-12.2998 0 -23.7998 -7.90039 -31.5 -21.6006l-9.5 -17c-4.19922 -7.39941 -15.5996 -4 -14.8994 4.5c3.09961 42.1006 32 71.4004 55.7998 71.4004z" />
    <glyph glyph-name="grip-horizontal-primary" unicode="&#xf58d;" horiz-adv-x="448" 
d="M416 352c17.6611 0 32 -14.3389 32 -32v-64c0 -17.6611 -14.3389 -32 -32 -32h-64c-17.6611 0 -32 14.3389 -32 32v64c0 17.6611 14.3389 32 32 32h64zM96 352c17.6611 0 32 -14.3389 32 -32v-64c0 -17.6611 -14.3389 -32 -32 -32h-64c-17.6611 0 -32 14.3389 -32 32v64
c0 17.6611 14.3389 32 32 32h64zM256 352c17.6611 0 32 -14.3389 32 -32v-64c0 -17.6611 -14.3389 -32 -32 -32h-64c-17.6611 0 -32 14.3389 -32 32v64c0 17.6611 14.3389 32 32 32h64z" />
    <glyph glyph-name="grip-vertical-primary" unicode="&#xf58e;" horiz-adv-x="320" 
d="M96 96c17.6611 0 32 -14.3389 32 -32v-64c0 -17.6611 -14.3389 -32 -32 -32h-64c-17.6611 0 -32 14.3389 -32 32v64c0 17.6611 14.3389 32 32 32h64zM96 256c17.6611 0 32 -14.3389 32 -32v-64c0 -17.6611 -14.3389 -32 -32 -32h-64c-17.6611 0 -32 14.3389 -32 32v64
c0 17.6611 14.3389 32 32 32h64zM96 416c17.6611 0 32 -14.3389 32 -32v-64c0 -17.6611 -14.3389 -32 -32 -32h-64c-17.6611 0 -32 14.3389 -32 32v64c0 17.6611 14.3389 32 32 32h64z" />
    <glyph glyph-name="headphones-alt-primary" unicode="&#xf58f;" 
d="M160 160c17.6611 0 32 -14.3379 32 -31.999v-0.0605469v-127.881v-0.0595703c0 -17.6611 -14.3389 -32 -32 -32h-16c-35.3271 0.0332031 -64 28.7236 -64 64.0586v0.0615234v63.7598c0 0.0234375 0.000976562 0.0458984 0.000976562 0.0703125
c0 35.333 28.6719 64.0225 63.999 64.0498h16zM368 160c35.3271 -0.0332031 64 -28.7236 64 -64.0586v-0.0615234v-63.7598c0 -0.0205078 -0.000976562 -0.0400391 -0.000976562 -0.0605469c0 -35.335 -28.6719 -64.0264 -63.999 -64.0596h-16
c-17.6611 0 -32 14.3379 -32 31.999v0.0605469v127.881v0.0595703c0 17.6611 14.3389 32 32 32h16z" />
    <glyph glyph-name="headset-primary" unicode="&#xf590;" 
d="M368 272c35.3223 0 64 -28.6777 64 -64v-48c0 -35.3223 -28.6777 -64 -64 -64h-16c-17.6611 0 -32 14.3389 -32 32v112c0 17.6611 14.3389 32 32 32h16zM160 272c17.6611 0 32 -14.3389 32 -32v-112c0 -17.6611 -14.3389 -32 -32 -32h-16c-35.3223 0 -64 28.6777 -64 64
v48c0 35.3223 28.6777 64 64 64h16z" />
    <glyph glyph-name="hot-tub-primary" unicode="&#xf593;" 
d="M480 192c17.6611 0 32 -14.3389 32 -32v-160c0 -35.3223 -28.6777 -64 -64 -64h-384c-35.3223 0 -64 28.6777 -64 64v192h480zM128 8v112c0 4.41504 -3.58496 8 -8 8h-16c-4.41504 0 -8 -3.58496 -8 -8v-112c0 -4.41504 3.58496 -8 8 -8h16c4.41504 0 8 3.58496 8 8z
M224 8v112c0 4.41504 -3.58496 8 -8 8h-16c-4.41504 0 -8 -3.58496 -8 -8v-112c0 -4.41504 3.58496 -8 8 -8h16c4.41504 0 8 3.58496 8 8zM320 8v112c0 4.41504 -3.58496 8 -8 8h-16c-4.41504 0 -8 -3.58496 -8 -8v-112c0 -4.41504 3.58496 -8 8 -8h16
c4.41504 0 8 3.58496 8 8zM416 8v112c0 4.41504 -3.58496 8 -8 8h-16c-4.41504 0 -8 -3.58496 -8 -8v-112c0 -4.41504 3.58496 -8 8 -8h16c4.41504 0 8 3.58496 8 8z" />
    <glyph glyph-name="hotel-primary" unicode="&#xf594;" horiz-adv-x="576" 
d="M560 384h-16v-384h16c8.83105 0 16 -7.16895 16 -16v-32c0 -8.83105 -7.16895 -16 -16 -16h-240v96h96c0 70.6455 -57.3545 128 -128 128s-128 -57.3545 -128 -128h96v-96h-240c-8.83105 0 -16 7.16895 -16 16v32c0 8.83105 7.16895 16 16 16h16v384h-16
c-8.83105 0 -16 7.16895 -16 16v32c0 8.83105 7.16895 16 16 16h544c8.83105 0 16 -7.16895 16 -16v-32c0 -8.83105 -7.16895 -16 -16 -16zM192 204.8v38.4004c0 6.39941 -6.40039 12.7998 -12.7998 12.7998h-38.4004c-6.39941 0 -12.7998 -6.40039 -12.7998 -12.7998
v-38.4004c0 -6.39941 6.40039 -12.7998 12.7998 -12.7998h38.4004c6.39941 0 12.7998 6.40039 12.7998 12.7998zM192 300.8v38.4004c0 6.39941 -6.40039 12.7998 -12.7998 12.7998h-38.4004c-6.39941 0 -12.7998 -6.40039 -12.7998 -12.7998v-38.4004
c0 -6.39941 6.40039 -12.7998 12.7998 -12.7998h38.4004c6.39941 0 12.7998 6.40039 12.7998 12.7998zM320 204.8v38.4004c0 6.39941 -6.40039 12.7998 -12.7998 12.7998h-38.4004c-6.39941 0 -12.7998 -6.40039 -12.7998 -12.7998v-38.4004
c0 -6.39941 6.40039 -12.7998 12.7998 -12.7998h38.4004c6.39941 0 12.7998 6.40039 12.7998 12.7998zM320 300.8v38.4004c0 6.39941 -6.40039 12.7998 -12.7998 12.7998h-38.4004c-6.39941 0 -12.7998 -6.40039 -12.7998 -12.7998v-38.4004
c0 -6.39941 6.40039 -12.7998 12.7998 -12.7998h38.4004c6.39941 0 12.7998 6.40039 12.7998 12.7998zM448 204.8v38.4004c0 6.39941 -6.40039 12.7998 -12.7998 12.7998h-38.4004c-6.39941 0 -12.7998 -6.40039 -12.7998 -12.7998v-38.4004
c0 -6.39941 6.40039 -12.7998 12.7998 -12.7998h38.4004c6.39941 0 12.7998 6.40039 12.7998 12.7998zM448 300.8v38.4004c0 6.39941 -6.40039 12.7998 -12.7998 12.7998h-38.4004c-6.39941 0 -12.7998 -6.40039 -12.7998 -12.7998v-38.4004
c0 -6.39941 6.40039 -12.7998 12.7998 -12.7998h38.4004c6.39941 0 12.7998 6.40039 12.7998 12.7998z" />
    <glyph glyph-name="joint-primary" unicode="&#xf595;" horiz-adv-x="640" 
d="M360.89 95.9502c0.0302734 0 0.0429688 0.0351562 0.0722656 0.0351562c19.4395 0 36.8662 -8.68652 48.6084 -22.3857l117.949 -137.6h-88.4492c-19.4385 0.000976562 -36.8496 8.65137 -48.5898 22.3496l-117.801 137.431
c1.40039 0.0195312 53.8105 0.109375 88.21 0.169922zM195 89c3.50488 0.585938 7.03027 0.921875 10.7002 0.921875c19.5908 0 37.168 -8.68457 49.0898 -22.4121l112.72 -131.51h-88.5693c-102.188 0 -198.168 29.5166 -278.94 80c58.0527 36.2207 124.739 61.7637 195 73
zM616 96c13.2461 0 24 -10.7539 24 -24v-112c0 -13.2461 -10.7539 -24 -24 -24h-17.4199c-19.4346 0.00390625 -36.8408 8.6543 -48.5801 22.3496l-118 137.65h184z" />
    <glyph glyph-name="luggage-cart-primary" unicode="&#xf59d;" horiz-adv-x="640" 
d="M624 64c8.83105 0 16 -7.16895 16 -16v-32c0 -8.83105 -7.16895 -16 -16 -16h-544c-8.83105 0 -16 7.16895 -16 16v368h-48c-8.83105 0 -16 7.16895 -16 16v32c0 8.83105 7.16895 16 16 16h96c8.83105 0 16 -7.16895 16 -16v-368h496zM288 352v-224h-32v224h32zM512 352
v-224h-32v224h32z" />
    <glyph glyph-name="map-marked-primary" unicode="&#xf59f;" horiz-adv-x="576" 
d="M414 322c0 -56.2598 -82.3496 -158.8 -113.9 -196c-2.89355 -3.46191 -7.24316 -5.66602 -12.1045 -5.66602c-4.86035 0 -9.20117 2.2041 -12.0947 5.66602c-31.5508 37.2002 -113.9 139.74 -113.9 196c0 69.541 56.459 126 126 126s126 -56.459 126 -126z" />
    <glyph glyph-name="map-marked-alt-primary" unicode="&#xf5a0;" horiz-adv-x="576" 
d="M288 448c69.541 0 126 -56.459 126 -126c0 -56.2598 -82.3496 -158.8 -113.9 -196c-2.89355 -3.46191 -7.23438 -5.66602 -12.0947 -5.66602c-4.86133 0 -9.21094 2.2041 -12.1045 5.66602c-31.5508 37.2002 -113.9 139.74 -113.9 196c0 69.541 56.459 126 126 126z
M288 280c23.1807 0 42 18.8193 42 42s-18.8193 42 -42 42s-42 -18.8193 -42 -42s18.8193 -42 42 -42z" />
    <glyph glyph-name="marker-primary" unicode="&#xf5a1;" 
d="M485.5 293.47l-165.5 -165.47l-128 128l98.4805 98.4697l-19.6006 19.5898l-87.1494 -87.1494c-2.89648 -2.89746 -6.89746 -4.69043 -11.3135 -4.69043s-8.4209 1.79297 -11.3174 4.69043l-22.6191 22.6201c-2.89746 2.89648 -4.69043 6.89648 -4.69043 11.3125
s1.79297 8.4209 4.69043 11.3174l104.119 104.12c7.24023 7.2373 17.2383 11.7168 28.2744 11.7168s21.0459 -4.47949 28.2861 -11.7168l36.5596 -36.5498l21.7607 21.7598c16.3008 15.8164 38.5283 25.5576 63.0127 25.5576c49.959 0 90.5195 -40.5605 90.5195 -90.5195
c0 -24.4844 -9.7168 -46.7373 -25.5322 -63.0381z" />
    <glyph glyph-name="medal-primary" unicode="&#xf5a2;" 
d="M256 288c97.1367 0 176 -78.8633 176 -176s-78.8633 -176 -176 -176s-176 78.8633 -176 176s78.8633 176 176 176zM348.52 130.74c2.15527 2.08887 3.48047 5.01465 3.48047 8.24902c0 5.77734 -4.27441 10.5654 -9.83008 11.3711l-52.4297 7.63965l-23.4307 47.5195
c-1.87891 3.79492 -5.7793 6.40723 -10.2979 6.40723s-8.43164 -2.6123 -10.3115 -6.40723l-23.4307 -47.5195l-52.3994 -7.62988c-5.54297 -0.817383 -9.81738 -5.59961 -9.81738 -11.3682c0 -3.22168 1.3291 -6.13477 3.4668 -8.22168l37.9307 -37l-9 -52.2207
c-0.107422 -0.628906 -0.150391 -1.25684 -0.150391 -1.91602c0 -6.33594 5.14355 -11.4805 11.4795 -11.4805c1.91992 0 3.72949 0.472656 5.32031 1.30664l46.9004 24.6504l46.9404 -24.6904c1.59082 -0.833984 3.41211 -1.32422 5.33203 -1.32422
c6.33594 0 11.4805 5.14453 11.4805 11.4805c0 0.65918 -0.0556641 1.30566 -0.163086 1.93359l-9 52.2207z" />
    <glyph glyph-name="monument-primary" unicode="&#xf5a6;" horiz-adv-x="384" 
d="M289.14 347.26l30.8604 -315.26h-256l30.8701 315.26c0.753906 7.5459 4.13184 14.3604 9.20996 19.4404l76.5996 76.6094c2.89648 2.89746 6.90137 4.69043 11.3174 4.69043s8.41699 -1.79297 11.3125 -4.69043l76.6201 -76.6094
c5.07812 -5.08008 8.45605 -11.8945 9.20996 -19.4404zM240 140.8v38.4004c0 6.39941 -6.40039 12.7998 -12.7998 12.7998h-70.4004c-6.39941 0 -12.7998 -6.40039 -12.7998 -12.7998v-38.4004c0 -6.39941 6.40039 -12.7998 12.7998 -12.7998h70.4004
c6.39941 0 12.7998 6.40039 12.7998 12.7998z" />
    <glyph glyph-name="mortar-pestle-primary" unicode="&#xf5a7;" 
d="M16 256h480c8.83105 0 16 -7.16895 16 -16v-32c0 -8.83105 -7.16895 -16 -16 -16h-16c0 -81 -50.2002 -150.11 -121.13 -178.32c12.8086 -16.7236 21.6514 -36.9219 24.9502 -58.6797c0.132812 -0.842773 0.202148 -1.70703 0.202148 -2.58691
c0 -9.01367 -7.27832 -16.3271 -16.2725 -16.4131h-223.5c-8.99414 0.0859375 -16.2695 7.41504 -16.2695 16.4297c0 0.879883 0.0664062 1.72754 0.199219 2.57031c3.30664 21.7578 12.1475 41.958 24.9502 58.6904c-70.9297 28.1992 -121.13 97.3096 -121.13 178.31h-16
c-8.83105 0 -16 7.16895 -16 16v32c0 8.83105 7.16895 16 16 16z" />
    <glyph glyph-name="paint-brush-alt-primary" unicode="&#xf5a9;" 
d="M167.87 138.71l87.0703 -72.5596c0.541016 -3.28223 0.897461 -6.60547 1.05957 -10c0 -76.3809 -52.1396 -120.15 -128 -120.15c-90.0703 0 -128 72.3799 -128 154.73c9.79004 -6.68066 44.1396 -34.3506 55.25 -34.3506
c0.0898438 -0.000976562 0.178711 -0.00195312 0.269531 -0.00195312c6.57715 0 12.1777 4.16406 14.3203 10.002c20.7998 54.7998 57.5801 69.9199 98.0303 72.3301z" />
    <glyph glyph-name="paint-roller-primary" unicode="&#xf5aa;" 
d="M512 320v-64c0 -52.9834 -43.0166 -96 -96 -96h-160v-32c17.6611 0 32 -14.3389 32 -32v-128c0 -17.6611 -14.3389 -32 -32 -32h-64c-17.6611 0 -32 14.3389 -32 32v128c0 17.6611 14.3389 32 32 32v32c0 35.3223 28.6777 64 64 64h160c17.6611 0 32 14.3389 32 32v128
c35.3223 0 64 -28.6777 64 -64z" />
    <glyph glyph-name="passport-primary" unicode="&#xf5ab;" horiz-adv-x="448" 
d="M224 161.31c-7.69043 7.4502 -20.7695 34.4307 -23.4404 78.6904h46.8701c-2.66016 -44.2695 -15.7393 -71.2402 -23.4297 -78.6904zM129.62 240h39.0898c1.49023 -27 6.53027 -51.3496 14.21 -70.4102c-27.6748 13.1709 -47.9727 39.2529 -53.2998 70.4102zM129.62 272
c5.32324 31.1582 25.623 57.2422 53.2998 70.4102c-7.66992 -19.0605 -12.7197 -43.4102 -14.21 -70.4102h-39.0898zM265.08 342.41c27.6768 -13.168 47.9766 -39.252 53.2998 -70.4102h-39.0898c-1.49023 27 -6.53027 51.3496 -14.21 70.4102zM200.57 272
c2.66016 44.2598 15.7393 71.2402 23.4395 78.6904c7.69043 -7.4502 20.7705 -34.4307 23.4307 -78.6904h-46.8701zM416 448c17.6611 0 32 -14.3389 32 -32v-448c0 -17.6611 -14.3389 -32 -32 -32h-352c-35.3223 0 -64 28.6777 -64 64v384c0 35.3223 28.6777 64 64 64h352z
M336 32c8.83105 0 16 7.16895 16 16s-7.16895 16 -16 16h-224c-8.83105 0 -16 -7.16895 -16 -16s7.16895 -16 16 -16h224zM224 128c70.6455 0 128 57.3545 128 128s-57.3545 128 -128 128s-128 -57.3545 -128 -128s57.3545 -128 128 -128zM265.08 169.59
c7.67969 19.0605 12.7197 43.4102 14.21 70.4102h39.0898c-5.32324 -31.1582 -25.623 -57.2422 -53.2998 -70.4102z" />
    <glyph glyph-name="pen-fancy-primary" unicode="&#xf5ac;" 
d="M483.48 305.45l-199.48 -183.11l-97.8496 97.8506l183.1 199.489c74.4805 84.2607 199.15 -39.1602 114.23 -114.229z" />
    <glyph glyph-name="pen-nib-primary" unicode="&#xf5ad;" 
d="M497.94 373.83c8.69629 -8.68945 14.0791 -20.6953 14.0791 -33.9482s-5.38281 -25.2725 -14.0791 -33.9619l-56.5508 -56.5498l-128 128l56.5508 56.5498c8.68945 8.69727 20.6953 14.0801 33.9482 14.0801s25.2715 -5.38281 33.9609 -14.0801z" />
    <glyph glyph-name="pencil-ruler-primary" unicode="&#xf5ae;" 
d="M497.94 388.68c8.71094 -8.69141 14.1045 -20.7207 14.1045 -33.9863c0 -13.2607 -5.38965 -25.2725 -14.0947 -33.9629l-46 -46l-113.21 113.199l46 46c8.69727 8.69727 20.7227 14.0791 33.9814 14.0791s25.2705 -5.38184 33.9688 -14.0791zM19.0801 68.3203
l297 296.96l113.21 -113.19l-296.92 -296.93l-107.45 -18.8398c-1.2002 -0.210938 -2.41602 -0.339844 -3.67676 -0.339844c-11.7168 0 -21.2295 9.5127 -21.2295 21.2295c0 1.25195 0.108398 2.47754 0.316406 3.66992z" />
    <glyph glyph-name="plane-arrival-primary" unicode="&#xf5af;" horiz-adv-x="640" 
d="M32.2305 265.59l-0.230469 101.78c0.0537109 9.07227 7.43555 16.4209 16.5195 16.4209c1.45312 0 2.85742 -0.1875 4.2002 -0.541016l39.7305 -10.8301c5.04199 -1.39453 9.11914 -5.1084 11 -9.92969l27.5898 -67.8799l102.2 -27.8408l-47.9004 164.23
c-0.00390625 0.15332 -0.00585938 0.307617 -0.00585938 0.462891c0 9.11133 7.39746 16.5098 16.5098 16.5098c1.45508 0 2.86133 -0.198242 4.20605 -0.552734l65.0898 -17.7295c5.71191 -1.58594 10.1924 -6.15137 11.6602 -11.9102l100.36 -191.851l97.5098 -26.5596
c26.4805 -7.20996 51.5498 -20.1797 70.8301 -40c21.6396 -22.25 27.2002 -40.46 23.3701 -55s-17.5801 -27.3701 -47.25 -35.6699c-26.4404 -7.36035 -54.5205 -5.85059 -81 1.35938l-287.62 78.3506c-9.58691 2.61328 -18.3027 7.4541 -25.4697 13.9297l-88.7402 80
c-6.53027 5.91016 -12.3701 14.3398 -12.5596 23.25z" />
    <glyph glyph-name="prescription-primary" unicode="&#xf5b1;" horiz-adv-x="384" 
d="M379.32 17.9102c2.89648 -2.89648 4.68945 -6.90137 4.68945 -11.3174s-1.79297 -8.41602 -4.68945 -11.3125l-22.6299 -22.6299c-2.89648 -2.89746 -6.90137 -4.69043 -11.3174 -4.69043s-8.41699 1.79297 -11.3135 4.69043l-78.0596 78.0596l45.2598 45.2002z
M172 225.22l84 -84l-45.25 -45.2197l-128 128h-18.75v-80c0 -8.83105 -7.16895 -16 -16 -16h-32c-8.83105 0 -16 7.16895 -16 16v256c0 8.83105 7.16895 16 16 16h144c52.9834 0 96 -43.0166 96 -96c0 -48.8896 -36.7305 -88.7803 -84 -94.7803zM64 288h96
c17.6611 0 32 14.3389 32 32s-14.3389 32 -32 32h-96v-64z" />
    <glyph glyph-name="shuttle-van-primary" unicode="&#xf5b6;" horiz-adv-x="640" 
d="M628.88 237.35c6.93164 -8.32617 11.1172 -19.0596 11.1201 -30.7295v-110.62c0 -17.6611 -14.3389 -32 -32 -32h-17.1396c-7.7959 54.2217 -54.5 95.9473 -110.864 95.9473s-103.061 -41.7256 -110.856 -95.9473h-98.2793
c-7.7959 54.2217 -54.5 95.9473 -110.864 95.9473s-103.061 -41.7256 -110.856 -95.9473h-17.1396c-17.6611 0 -32 14.3389 -32 32v288c0 17.6611 14.3389 32 32 32h425.52c14.8184 -0.000976562 28.0635 -6.70215 36.8701 -17.2695zM160 256v96h-96v-96h96zM320 256v96h-96
v-96h96zM384 256h146l-80 96h-66v-96z" />
    <glyph glyph-name="smile-plus-primary" unicode="&#xf5b9;" horiz-adv-x="640" 
d="M624 368c8.83105 0 16 -7.16895 16 -16v-32c0 -8.83105 -7.16895 -16 -16 -16h-64v-64c0 -8.83105 -7.16895 -16 -16 -16h-32c-8.83105 0 -16 7.16895 -16 16v64h-64c-8.83105 0 -16 7.16895 -16 16v32c0 8.83105 7.16895 16 16 16h64v64c0 8.83105 7.16895 16 16 16h32
c8.83105 0 16 -7.16895 16 -16v-64h64zM272 218.8c14.791 0 26.7998 -12.0088 26.7998 -26.7998s-12.0088 -26.7998 -26.7998 -26.7998s-26.7998 12.0088 -26.7998 26.7998s12.0088 26.7998 26.7998 26.7998zM144 218.8c14.791 0 26.7998 -12.0088 26.7998 -26.7998
s-12.0088 -26.7998 -26.7998 -26.7998s-26.7998 12.0088 -26.7998 26.7998s12.0088 26.7998 26.7998 26.7998z" />
    <glyph glyph-name="solar-panel-primary" unicode="&#xf5ba;" horiz-adv-x="640" 
d="M432 0c8.83105 0 16 -7.16895 16 -16v-31.7402c0 -8.83008 -7.16895 -16 -16 -16l-224 -0.259766c-8.83105 0 -16 7.16895 -16 16v31.7402c0 8.83008 7.16895 16 16 16l48 0.0498047v32.21h128v-32.0498zM380.16 384l9.76953 -96h-139.87l9.77051 96h120.33zM541.75 288
h-102.75l-9.73047 96h96.1904zM394.82 240l11.3994 -112h-172.45l11.4004 112h149.65zM90.0996 240h105.971l-11.4102 -112h-113.561zM210.72 384l-9.71973 -96h-102.76l16.29 96h96.1895zM549.9 240l19.0098 -112h-113.61l-11.3994 112h106z" />
    <glyph glyph-name="spa-primary" unicode="&#xf5bb;" horiz-adv-x="576" 
d="M576 248.18c-0.230469 -27.9199 -7.12988 -126.14 -88.7695 -199.3c-84.04 -81.8799 -167.23 -80.8799 -199.23 -80.8799s-115.21 -1 -199.23 80.8799c-81.6299 73.1201 -88.5391 171.38 -88.7695 199.3
c-0.00195312 0.0751953 -0.00292969 0.150391 -0.00292969 0.225586c0 4.19434 3.40527 7.59961 7.59961 7.59961c0.0517578 0 0.101562 -0.00390625 0.15332 -0.00488281c29 -0.129883 135 -6.16016 213.84 -83c33.1201 -29.6396 53.4102 -63.2998 66.4102 -94.8604
c13.0498 31.5605 33.29 65.2207 66.4102 94.8506c78.8301 76.8398 184.8 82.8701 213.84 83c0.0517578 0.000976562 0.103516 0.000976562 0.155273 0.000976562c4.19531 0 7.60059 -3.40527 7.60059 -7.59961c0 -0.0722656 -0.00390625 -0.140625 -0.00585938 -0.211914z
" />
    <glyph glyph-name="splotch-primary" unicode="&#xf5bc;" 
d="M472.29 252.11c48.54 -16.6201 53.8301 -73.8301 8.9502 -96.8008l-62 -31.7393c-17.8301 -9.12988 -29.2803 -25.2002 -30.6299 -43l-4.7002 -61.8604c-2.33984 -30.71 -32.1006 -50.71 -63.25 -50.71c-0.174805 -0.000976562 -0.398438 0.03125 -0.574219 0.03125
c-15.2158 0 -29.2744 4.99316 -40.626 13.4287l-54.3203 40.8301c-11.4971 8.4043 -25.7178 13.4023 -41.0371 13.4023c-0.173828 0 -0.348633 -0.000976562 -0.522461 -0.00195312c-0.00585938 0 0.0361328 -0.00292969 0.03125 -0.00292969
c-5.33398 0 -10.5332 -0.575195 -15.541 -1.66797l-70 -15.2793c-5.15137 -1.13086 -10.4531 -1.7334 -15.9404 -1.74023c-43.2402 0 -75.9199 38.7598 -57.5098 75.5996l28.4297 57c8.18066 16.4004 6.44043 35.1699 -4.58984 50.2402l-38.54 52.4004
c-26.7998 36.46 4.36035 83.0693 52.9502 83.0693c1.99023 0 4 -0.0791016 6.0498 -0.239258l71.8799 -5.62012c1.91992 -0.150391 3.83008 -0.219727 5.74023 -0.219727c18.6201 0 36.46 7.08984 48.46 19.5293l46.0898 47.6699
c12.96 13.3906 30.6699 19.5703 48.1699 19.5703c27.6299 0 54.7402 -15.4004 61.8301 -42.1904l16 -60.4492c4.60059 -17.3799 18.8604 -31.7002 38.1406 -38.3008zM306.89 61c2.26074 29.6699 0.629883 95.25 79.8701 135.87
c-86.2002 29.5195 -94.5898 86.9297 -105.069 126.52c-47.71 -49.29 -68.54 -79.7998 -172.07 -71.71c44.8604 -61.0195 27.6602 -112.399 10.8604 -146.08c103.409 22.5703 123.279 2.86035 186.409 -44.5996z" />
    <glyph glyph-name="spray-can-primary" unicode="&#xf5bd;" 
d="M224 288c52.9834 0 96 -43.0166 96 -96v-224c0 -17.6611 -14.3389 -32 -32 -32h-256c-17.6611 0 -32 14.3389 -32 32v224c0 52.9834 43.0166 96 96 96h128zM160 32c44.1533 0 80 35.8467 80 80s-35.8467 80 -80 80s-80 -35.8467 -80 -80s35.8467 -80 80 -80zM224 416v-96
h-128v96c0 17.6611 14.3389 32 32 32h64c17.6611 0 32 -14.3389 32 -32z" />
    <glyph glyph-name="swimmer-primary" unicode="&#xf5c4;" horiz-adv-x="640" 
d="M640 80v-32c0 -8.83105 -7.16895 -16 -16 -16h-16c-38.6201 0 -72.7197 12.1797 -96 31.8398c-23.2803 -19.6494 -57.3799 -31.8398 -96 -31.8398s-72.7197 12.1797 -96 31.8398c-23.2803 -19.6494 -57.3799 -31.8398 -96 -31.8398s-72.7197 12.1797 -96 31.8398
c-23.2803 -19.6494 -57.3799 -31.8398 -96 -31.8398h-16c-8.83105 0 -16 7.16895 -16 16v32c0 8.83105 7.16895 16 16 16h16c26 0 45.7998 8.41992 56.0703 17.9004c8.89941 8.20996 19.6602 14.0996 31.7695 14.0996h16.2998c12.1104 0 22.8701 -5.88965 31.7705 -14.0996
c10.29 -9.48047 30.0898 -17.9004 56.0898 -17.9004s45.7998 8.41992 56.0703 17.9004c8.89941 8.20996 19.6602 14.0996 31.7695 14.0996h16.2998c12.1104 0 22.8701 -5.88965 31.7705 -14.0996c10.29 -9.48047 30.0898 -17.9004 56.0898 -17.9004
s45.7998 8.41992 56.0703 17.9004c8.89941 8.20996 19.6602 14.0996 31.7695 14.0996h16.2998c12.1104 0 22.8701 -5.88965 31.7705 -14.0996c10.29 -9.48047 30.0898 -17.9004 56.0898 -17.9004h16c8.83105 0 16 -7.16895 16 -16z" />
    <glyph glyph-name="swimming-pool-primary" unicode="&#xf5c5;" horiz-adv-x="640" 
d="M0 -16v32c0 8.83105 7.16895 16 16 16h16c26 0 45.7998 8.41992 56.0703 17.9004c8.89941 8.20996 19.6602 14.0996 31.7695 14.0996h16.2998c12.1104 0 22.8701 -5.88965 31.7705 -14.0996c10.29 -9.48047 30.0898 -17.9004 56.0898 -17.9004
s45.7998 8.41992 56.0703 17.9004c8.89941 8.20996 19.6602 14.0996 31.7695 14.0996h16.2998c12.1104 0 22.8701 -5.88965 31.7705 -14.0996c10.29 -9.48047 30.0898 -17.9004 56.0898 -17.9004s45.7998 8.41992 56.0703 17.9004
c8.89941 8.20996 19.6602 14.0996 31.7695 14.0996h16.2998c12.1104 0 22.8701 -5.88965 31.7705 -14.0996c10.29 -9.48047 30.0898 -17.9004 56.0898 -17.9004h16c8.83105 0 16 -7.16895 16 -16v-32c0 -8.83105 -7.16895 -16 -16 -16h-16
c-38.6201 0 -72.7197 12.1797 -96 31.8398c-23.2803 -19.6494 -57.3799 -31.8398 -96 -31.8398s-72.7197 12.1797 -96 31.8398c-23.2803 -19.6494 -57.3799 -31.8398 -96 -31.8398s-72.7197 12.1797 -96 31.8398c-23.2803 -19.6494 -57.3799 -31.8398 -96 -31.8398h-16
c-8.83105 0 -16 7.16895 -16 16z" />
    <glyph glyph-name="tint-slash-primary" unicode="&#xf5c7;" horiz-adv-x="640" 
d="M636.64 -32.5498l-19.6396 -25.2705c-2.92871 -3.76855 -7.50293 -6.19434 -12.6406 -6.19434c-3.69727 0 -7.1084 1.27539 -9.81934 3.38477l-588.36 454.729c-3.76562 2.92871 -6.18945 7.50195 -6.18945 12.6377c0 3.69434 1.27344 7.10352 3.37988 9.8125
l19.6299 25.2705c2.92773 3.77051 7.50488 6.19922 12.6445 6.19922c3.7002 0 7.11426 -1.27734 9.8252 -3.38965l588.351 -454.729c3.76855 -2.92871 6.19629 -7.50391 6.19629 -12.6426c0 -3.69141 -1.27246 -7.09863 -3.37695 -9.80762z" />
    <glyph glyph-name="tooth-primary" unicode="&#xf5c9;" horiz-adv-x="448" 
 />
    <glyph glyph-name="umbrella-beach-primary" unicode="&#xf5ca;" horiz-adv-x="640" 
d="M247.63 262.94c44.4902 101.979 114.74 171.13 172.76 171.17c0.100586 0 0.219727 -0.0214844 0.319336 -0.0214844c7.99414 0 15.6621 -1.4043 22.7715 -3.97852c61.3193 -22.3408 78.3799 -132.62 42.6191 -254zM115.38 311.1
c-10.0801 3.66992 -14.1104 16.3203 -7.37988 24.7207c54.8516 68.4854 138.838 112.168 233.322 112.168c5.08594 0 10.1436 -0.126953 15.168 -0.37793c-52.79 -29.4102 -103.811 -92.1504 -139 -173.69zM521.47 387.5
c72.1348 -54.6895 118.518 -141.049 118.518 -238.466c0 -2.29395 -0.0253906 -4.58203 -0.0771484 -6.86426c-0.259766 -10.7402 -11.4805 -17.8398 -21.5703 -14.1699l-102.62 37.3096c17.5303 58.7705 24.6904 117.11 18.9502 167
c-2.0957 19.0957 -6.65723 37.8174 -13.2002 55.1904zM560 0c8.83105 0 16 -7.16895 16 -16v-32c0 -8.83105 -7.16895 -16 -16 -16h-544c-8.83105 0 -16 7.16895 -16 16v32c0 8.83105 7.16895 16 16 16h544z" />
    <glyph glyph-name="vector-square-primary" unicode="&#xf5cb;" 
d="M128 96c17.6611 0 32 -14.3389 32 -32v-96c0 -17.6611 -14.3389 -32 -32 -32h-96c-17.6611 0 -32 14.3389 -32 32v96c0 17.6611 14.3389 32 32 32h96zM96 0v32h-32v-32h32zM480 96c17.6611 0 32 -14.3389 32 -32v-96c0 -17.6611 -14.3389 -32 -32 -32h-96
c-17.6611 0 -32 14.3389 -32 32v96c0 17.6611 14.3389 32 32 32h96zM448 0v32h-32v-32h32zM480 448c17.6611 0 32 -14.3389 32 -32v-96c0 -17.6611 -14.3389 -32 -32 -32h-96c-17.6611 0 -32 14.3389 -32 32v96c0 17.6611 14.3389 32 32 32h96zM448 352v32h-32v-32h32z
M128 448c17.6611 0 32 -14.3389 32 -32v-96c0 -17.6611 -14.3389 -32 -32 -32h-96c-17.6611 0 -32 14.3389 -32 32v96c0 17.6611 14.3389 32 32 32h96zM96 352v32h-32v-32h32z" />
    <glyph glyph-name="weight-hanging-primary" unicode="&#xf5cd;" 
d="M510.28 2.15039c8.33008 -33.3105 -14.6602 -66.1504 -46.2803 -66.1504h-416c-31.6201 0 -54.6104 32.8398 -46.2305 66.1504l73 292.13c3.79004 15.1797 16.4404 25.7197 30.8701 25.7197h300.771c14.4297 0 27.0703 -10.5303 30.8701 -25.7197z" />
    <glyph glyph-name="tint-secondary" unicode="&#x10f043;" horiz-adv-x="352" 
d="M205.22 425.91c46.9902 -158.48 146.78 -200.07 146.78 -311.82c0 -98.4395 -78.7197 -178.09 -176 -178.09s-176 79.6504 -176 178.09c0 111.19 100 154.061 146.78 311.82c9 30.1201 50.5 28.7803 58.4395 0zM176 0c8.83105 0 16 7.16895 16 16s-7.16895 16 -16 16
c-44.1299 0.0498047 -79.9502 35.8701 -80 80c0 8.83105 -7.16895 16 -16 16s-16 -7.16895 -16 -16c0.0771484 -61.7783 50.2217 -111.923 112 -112z" />
    <glyph glyph-name="cut-secondary" unicode="&#x10f0c4;" horiz-adv-x="448" 
d="M96 224c-52.9697 0.0166016 -96.0088 42.9727 -96.0088 95.9473c0 52.9834 43.0166 96 96 96c52.9844 0 96 -43.0166 96 -96c0 -12.4268 -2.36523 -24.3037 -6.6709 -35.207l24.8496 -24.8604l-67.8799 -67.8799l-32.9297 32.9297
c-4.39844 -0.615234 -8.79395 -0.929688 -13.3604 -0.929688zM96 352c-17.6611 0 -32 -14.3389 -32 -32s14.3389 -32 32 -32s32 14.3389 32 32s-14.3389 32 -32 32zM444.48 25.5703c2.18066 -2.17383 3.53125 -5.17969 3.53125 -8.49902
c0 -3.31836 -1.35059 -6.32812 -3.53125 -8.50098c-15.2051 -15.2041 -36.2041 -24.6133 -59.3838 -24.6133s-44.2021 9.40918 -59.4062 24.6133l-115.521 115.55l67.8896 67.8799z" />
    <glyph glyph-name="magic-secondary" unicode="&#x10f0d0;" 
d="M80 448l26.6602 -53.3301l53.3398 -26.6699l-53.3398 -26.6699l-26.6602 -53.3301l-26.6602 53.3301l-53.3398 26.6699l53.3398 26.6699zM272 400l-32 -16l-16 -32l-16 32l-32 16l32 16l16 32l16 -32zM458.66 106.67l53.3398 -26.6699l-53.3398 -26.6699
l-26.6602 -53.3301l-26.6602 53.3301l-53.3398 26.6699l53.3398 26.6699l26.6602 53.3301zM399 204.93l-39.5098 -39.5693l-39.5898 39.5801l-50.9102 50.9092l-39.6104 39.6104l39.6201 39.5996l86.4902 86.54l17 17c5.79199 5.79102 13.7998 9.375 22.6289 9.375
c8.83008 0 16.8291 -3.58398 22.6211 -9.375l17 -17l50.8594 -50.8594l17 -17c5.79395 -5.79297 9.37988 -13.8027 9.37988 -22.6348s-3.58594 -16.833 -9.37988 -22.625l-17 -17zM308.5 295.45l50.9502 -50.9102l86.5996 86.5498l-50.9102 50.9102z" />
    <glyph glyph-name="crop-secondary" unicode="&#x10f125;" 
d="M512 72v-48c0 -13.2461 -10.7539 -24 -24 -24h-40v96h40c13.2461 0 24 -10.7539 24 -24zM416 384h-13.25l59.3096 59.3096c2.89648 2.89746 6.90137 4.69043 11.3174 4.69043s8.41699 -1.79297 11.3135 -4.69043l22.6191 -22.6191
c2.89746 -2.89648 4.69043 -6.90137 4.69043 -11.3174s-1.79297 -8.41699 -4.69043 -11.3135l-59.3096 -59.3096v13.25c0 17.6611 -14.3389 32 -32 32zM352 242.75l-146.75 -146.75h114.75v-96h-224c-17.6611 0 -32 14.3389 -32 32v392c0 13.2461 10.7539 24 24 24h48
c13.2461 0 24 -10.7539 24 -24v-282.75l146.75 146.75h45.25v-45.25z" />
    <glyph glyph-name="taxi-secondary" unicode="&#x10f1ba;" 
d="M352 384v-32h-192v32c0 17.6611 14.3389 32 32 32h128c17.6611 0 32 -14.3389 32 -32zM96 80c17.6611 0 32 -14.3389 32 -32v-48c0 -17.6611 -14.3389 -32 -32 -32h-32c-17.6611 0 -32 14.3389 -32 32v48c0 17.6611 14.3389 32 32 32h32zM448 80
c17.6611 0 32 -14.3389 32 -32v-48c0 -17.6611 -14.3389 -32 -32 -32h-32c-17.6611 0 -32 14.3389 -32 32v48c0 17.6611 14.3389 32 32 32h32zM378.06 275.14l17.3906 -67.1396h-278.9l17.2002 66.3604c2.23047 8.15918 9.58984 13.6396 15.0596 13.6396h214.4
c5.46973 0 12.8496 -5.48047 14.8496 -12.8604z" />
    <glyph glyph-name="eye-dropper-secondary" unicode="&#x10f1fb;" 
d="M32 -64l-32 32l32 56v45.5c0 17 6.7002 33.2998 18.7998 45.2998l126.601 126.601l128 -128l-126.7 -126.7c-12 -12 -28.2998 -18.7002 -45.2002 -18.7002h-45.5z" />
    <glyph glyph-name="paint-brush-secondary" unicode="&#x10f1fc;" 
d="M512 398.45c0 -16.1406 -6.51953 -31.6406 -13.9004 -46c-113.04 -210.98 -149.04 -256.45 -211.1 -256.45c-7.7334 0.078125 -15.2236 1.12207 -22.3896 3l-63.8203 53.1797c-5.49512 11.7393 -8.64844 24.9111 -8.73047 38.7002c0 53.75 21.2705 58 225.681 240.64
c10.79 9.77051 25 16.4805 40.1602 16.4805c28.0996 0 54.0996 -20.6396 54.0996 -49.5498z" />
    <glyph glyph-name="bus-secondary" unicode="&#x10f207;" 
d="M352 0h96v-32c0 -17.6611 -14.3389 -32 -32 -32h-32c-17.6611 0 -32 14.3389 -32 32v32zM64 -32v32h96v-32c0 -17.6611 -14.3389 -32 -32 -32h-32c-17.6611 0 -32 14.3389 -32 32zM128 160c-17.6611 0 -32 14.3389 -32 32v128c0 17.6611 14.3389 32 32 32h256
c17.6611 0 32 -14.3389 32 -32v-128c0 -17.6611 -14.3389 -32 -32 -32h-256z" />
    <glyph glyph-name="bed-secondary" unicode="&#x10f236;" horiz-adv-x="640" 
d="M528 320c61.8145 0 112 -50.1855 112 -112v-48h-352v144c0 8.83105 7.16895 16 16 16h224zM176 352c44.1533 0 80 -35.8467 80 -80s-35.8467 -80 -80 -80s-80 35.8467 -80 80s35.8467 80 80 80z" />
    <glyph glyph-name="map-secondary" unicode="&#x10f279;" horiz-adv-x="576" 
d="M192 416l192 -64v-384l-192 64v384z" />
    <glyph glyph-name="pen-secondary" unicode="&#x10f304;" 
d="M498 305.92l-56.5996 -56.5498l-128 128l56.5498 56.5498c8.68945 8.69727 20.6953 14.0801 33.9482 14.0801s25.2715 -5.38281 33.9619 -14.0801l60.1396 -60.0898c8.69629 -8.68945 14.0791 -20.6953 14.0791 -33.9482s-5.38281 -25.2725 -14.0791 -33.9619z" />
    <glyph glyph-name="pen-alt-secondary" unicode="&#x10f305;" 
d="M498 373.83c8.69629 -8.68945 14.0791 -20.6953 14.0791 -33.9482s-5.38281 -25.2725 -14.0791 -33.9619l-56.5996 -56.5498l-128 128l56.5498 56.5498c8.68945 8.69727 20.6953 14.0801 33.9482 14.0801s25.2715 -5.38281 33.9619 -14.0801z" />
    <glyph glyph-name="feather-secondary" unicode="&#x10f52d;" 
d="M483.4 203.8l-131.551 -43.7998h97.7803c-9.91992 -10.6797 3.67969 3.07031 -46.2998 -46.8604l-147.58 -49.1396h98.1904c-74.9404 -73.1104 -194.521 -70.6504 -246.82 -54.9404l-0.0605469 0.0507812l197.94 197.89c4.35156 4.35156 7.04492 10.3623 7.04492 16.9971
c0 13.2686 -10.7725 24.041 -24.042 24.041c-6.63379 0 -12.6514 -2.68652 -17.0029 -7.03809l-197.81 -197.87l-0.200195 0.209961c-12.1299 40.3701 -26.1201 166.28 56.1094 248.43c24.7803 24.7402 7.15039 7.14062 85.75 85.6602
c90.6104 90.5107 189.73 88.21 252.28 25.7305c50.5801 -50.5205 61.7002 -124.9 16.2705 -199.36z" />
    <glyph glyph-name="archway-secondary" unicode="&#x10f557;" horiz-adv-x="576" 
d="M576 432v-32c0 -8.83105 -7.16895 -16 -16 -16h-544c-8.83105 0 -16 7.16895 -16 16v32c0 8.83105 7.16895 16 16 16h544c8.83105 0 16 -7.16895 16 -16z" />
    <glyph glyph-name="atlas-secondary" unicode="&#x10f558;" horiz-adv-x="448" 
d="M96 0c-19.2002 0 -32 12.7998 -32 32s16 32 32 32h319.33c-1.92969 -16.2402 -1.75977 -48.3799 0.530273 -64h-319.86z" />
    <glyph glyph-name="backspace-secondary" unicode="&#x10f55a;" horiz-adv-x="640" 
d="M576 384c35.3223 0 64 -28.6777 64 -64v-256c0 -35.3223 -28.6777 -64 -64 -64h-370.75c-17.6602 0.00292969 -33.667 7.16504 -45.25 18.75l-150.62 150.63c-5.79102 5.79199 -9.37402 13.7998 -9.37402 22.6299c0 8.8291 3.58301 16.8281 9.37402 22.6201
l150.62 150.62c11.585 11.5879 27.5967 18.75 45.2598 18.75h370.74zM491.31 129.94l-62.0596 62.0596l62.0596 62.0596c2.89746 2.89648 4.69043 6.90137 4.69043 11.3174s-1.79297 8.41699 -4.69043 11.3135l-22.6191 22.6191
c-2.89648 2.89746 -6.90137 4.69043 -11.3174 4.69043s-8.41699 -1.79297 -11.3135 -4.69043l-62.0596 -62.0596l-62.0596 62.0596c-2.89648 2.89746 -6.90137 4.69043 -11.3174 4.69043s-8.41699 -1.79297 -11.3135 -4.69043l-22.6191 -22.6191
c-2.89746 -2.89648 -4.69043 -6.90137 -4.69043 -11.3174s1.79297 -8.41699 4.69043 -11.3135l62.0596 -62.0596l-62.0596 -62.0596c-2.89746 -2.89648 -4.69043 -6.90137 -4.69043 -11.3174s1.79297 -8.41699 4.69043 -11.3135l22.6191 -22.6191
c2.89648 -2.89746 6.90137 -4.69043 11.3174 -4.69043s8.41699 1.79297 11.3135 4.69043l62.0596 62.0596l62.0596 -62.0596c2.89648 -2.89746 6.90137 -4.69043 11.3174 -4.69043s8.41699 1.79297 11.3135 4.69043l22.6191 22.6191
c2.89746 2.89648 4.69043 6.90137 4.69043 11.3174s-1.79297 8.41699 -4.69043 11.3135z" />
    <glyph glyph-name="bezier-curve-secondary" unicode="&#x10f55b;" horiz-adv-x="640" 
d="M368 416c17.6611 0 32 -14.3389 32 -32v-96c0 -17.6611 -14.3389 -32 -32 -32h-96c-17.6611 0 -32 14.3389 -32 32v96c0 17.6611 14.3389 32 32 32h96zM160 128c17.6611 0 32 -14.3389 32 -32v-96c0 -17.6611 -14.3389 -32 -32 -32h-96c-17.6611 0 -32 14.3389 -32 32v96
c0 17.6611 14.3389 32 32 32h96zM576 128c17.6611 0 32 -14.3389 32 -32v-96c0 -17.6611 -14.3389 -32 -32 -32h-96c-17.6611 0 -32 14.3389 -32 32v96c0 17.6611 14.3389 32 32 32h96z" />
    <glyph glyph-name="bong-secondary" unicode="&#x10f55c;" horiz-adv-x="448" 
d="M48 64c0 25.4199 5.87012 46.5303 14.7402 64h258.52c8.87012 -17.4697 14.7402 -38.5801 14.7402 -64c-0.000976562 -25.918 -7.00293 -50.3877 -19.0801 -71.3604c-2.83594 -5.08105 -8.21875 -8.52832 -14.4199 -8.63965h-221
c-6.20117 0.111328 -11.584 3.55859 -14.4199 8.63965c-12.0771 20.9727 -19.0791 45.4424 -19.0801 71.3604z" />
    <glyph glyph-name="brush-secondary" unicode="&#x10f55d;" horiz-adv-x="384" 
d="M384 416v-224h-384v224c0 17.6611 14.3389 32 32 32h320c17.6611 0 32 -14.3389 32 -32z" />
    <glyph glyph-name="bus-alt-secondary" unicode="&#x10f55e;" 
d="M96 288c0 17.6611 14.3389 32 32 32h112v-160h-112c-17.6611 0 -32 14.3389 -32 32v96zM416 192c0 -17.6611 -14.3389 -32 -32 -32h-112v160h112c17.6611 0 32 -14.3389 32 -32v-96zM64 -32v32h96v-32c0 -17.6611 -14.3389 -32 -32 -32h-32
c-17.6611 0 -32 14.3389 -32 32zM352 0h96v-32c0 -17.6611 -14.3389 -32 -32 -32h-32c-17.6611 0 -32 14.3389 -32 32v32z" />
    <glyph glyph-name="cannabis-secondary" unicode="&#x10f55f;" 
d="M512 73.5996c0 -6.13184 -3.44043 -11.4639 -8.50977 -14.1494c-2.49023 -1.29004 -60.7705 -31.7197 -133.49 -31.7197c-6.12695 0 -11.96 0.103516 -17.5 0.30957c11.3604 -22.2305 16.5195 -38.3096 16.8096 -39.2197
c0.480469 -1.52148 0.740234 -3.13965 0.740234 -4.81836c0 -8.83105 -7.16992 -16 -16 -16c-1.65137 0 -3.24121 0.25293 -4.74023 0.717773c-1.8291 0.580078 -37.7197 12 -77.2998 39.29v159.99c0 4.41504 -3.58398 8 -8 8h-16.0098c-4.41504 0 -8 -3.58496 -8 -8v-160
c-39.5801 -27.2998 -75.4697 -38.7197 -77.2998 -39.29c-1.49902 -0.464844 -3.0918 -0.71582 -4.74316 -0.71582c-8.83105 0 -16 7.16895 -16 16c0 1.67871 0.262695 3.29492 0.743164 4.81543c0.290039 0.910156 5.43945 17 16.8096 39.2207
c-5.54004 -0.209961 -11.3594 -0.310547 -17.5 -0.310547c-72.7295 0 -131 30.4307 -133.49 31.7207c-5.07617 2.68359 -8.53809 8.01758 -8.53809 14.1543s3.46191 11.4521 8.53809 14.1357c1.57031 0.819336 32.3906 16.8896 76.7803 25.8096
c-64.2402 75.1396 -84.04 161.69 -84.9199 165.66c-0.248047 1.11816 -0.37793 2.2793 -0.37793 3.47168c0 8.83105 7.16895 16 16 16c1.18066 0 2.32031 -0.138672 3.42773 -0.381836c3.89062 -0.860352 86.5508 -19.5996 160.58 -79.7598v4.39941
c0 118.79 60 213.721 62.5303 217.7c2.8457 4.43359 7.81934 7.37402 13.4746 7.37402s10.6094 -2.94043 13.4551 -7.37402c2.5498 -4 62.5303 -98.9102 62.5303 -217.7v-4.39941c74 60.1699 156.7 78.9102 160.58 79.7598c1.10254 0.248047 2.25 0.378906 3.42773 0.378906
c0.00683594 0 0.00488281 0.000976562 0.0117188 0.000976562c8.83105 0 16 -7.16895 16 -16c0 -1.19531 -0.130859 -2.34961 -0.379883 -3.46973c-0.879883 -4 -20.6797 -90.5205 -84.9297 -165.641c44.3896 -8.91992 75.2197 -25 76.7803 -25.8096
c5.06934 -2.68555 8.52637 -8.0166 8.52637 -14.1484c0 -0.00390625 -0.0166016 0.00195312 -0.0166016 -0.00195312z" />
    <glyph glyph-name="concierge-bell-secondary" unicode="&#x10f562;" 
d="M512 48v-32c0 -8.83105 -7.16895 -16 -16 -16h-480c-8.83105 0 -16 7.16895 -16 16v32c0 8.83105 7.16895 16 16 16h480c8.83105 0 16 -7.16895 16 -16zM208 336c-8.83105 0 -16 7.16895 -16 16v16c0 8.83105 7.16895 16 16 16h96c8.83105 0 16 -7.16895 16 -16v-16
c0 -8.83105 -7.16895 -16 -16 -16h-16v-18.29c-10.5254 1.51465 -20.832 2.29785 -31.7734 2.29785s-21.7012 -0.783203 -32.2266 -2.29785v18.29h-16z" />
    <glyph glyph-name="cookie-secondary" unicode="&#x10f563;" 
d="M510.37 193.22c1.07129 -6.78613 1.54492 -13.7461 1.54492 -20.8311c0 -21.6416 -5.19141 -42.0811 -14.3955 -60.1387l-35.0996 -68.8701c-12.7051 -24.9248 -32.8672 -45.0908 -57.79 -57.7998l-69.1104 -35.21c-17.9473 -9.13867 -38.2617 -14.375 -59.7676 -14.375
c-7.05957 0 -13.9912 0.555664 -20.752 1.625l-76.6699 12.1396c-28.1162 4.46191 -53.4365 17.793 -72.7002 37.0498l-54.7598 54.75c-19.3184 19.3311 -32.6885 44.7393 -37.1602 72.9502l-12.0801 76.2803c-1.07617 6.79785 -1.55176 13.7695 -1.55176 20.8682
c0 21.6172 5.18262 42.0322 14.3721 60.0723l35.0996 68.8799c12.7051 24.9248 32.8672 45.0908 57.79 57.7998l69.1406 35.21c17.9434 9.14648 38.2568 14.3867 59.7627 14.3867c7.06152 0 13.9941 -0.555664 20.7568 -1.62695l76.6699 -12.2002
c28.1143 -4.43945 53.4365 -17.7549 72.7002 -37l54.7598 -54.6992c19.3281 -19.3428 32.7002 -44.7695 37.1602 -73zM176 80c17.6611 0 32 14.3389 32 32s-14.3389 32 -32 32s-32 -14.3389 -32 -32s14.3389 -32 32 -32zM208 240c17.6611 0 32 14.3389 32 32
s-14.3389 32 -32 32s-32 -14.3389 -32 -32s14.3389 -32 32 -32zM368 112c17.6611 0 32 14.3389 32 32s-14.3389 32 -32 32s-32 -14.3389 -32 -32s14.3389 -32 32 -32z" />
    <glyph glyph-name="cookie-bite-secondary" unicode="&#x10f564;" 
d="M510.52 192.19c0.991211 -6.5293 1.42188 -13.2148 1.42188 -20.0186c0 -21.582 -5.16797 -41.9658 -14.3311 -59.9814l-35.1006 -68.8809c-12.7012 -24.9297 -32.8643 -45.0996 -57.79 -57.8096l-69.1299 -35.21c-17.9473 -9.14648 -38.2637 -14.3867 -59.7715 -14.3867
c-7.0625 0 -13.9951 0.555664 -20.7588 1.62695l-76.71 12.1494c-28.1211 4.46191 -53.4463 17.7959 -72.71 37.0605l-54.7695 54.7598c-19.3262 19.3428 -32.6982 44.7695 -37.1602 73l-12.0801 76.2695c-1.08008 6.8125 -1.55859 13.7988 -1.55859 20.9131
c0 21.623 5.18457 42.0439 14.3789 60.0869l35.0996 68.8809c12.7021 24.9297 32.8652 45.0996 57.79 57.8096l69.1299 35.2197c17.9248 9.1084 38.2021 14.3262 59.6689 14.3262c6.81641 0 13.5127 -0.517578 20.0518 -1.51562
c0.78125 -69.9141 57.7686 -126.462 127.859 -126.49c0.0615234 -70.0576 56.585 -127.013 126.47 -127.81zM176 80c17.6611 0 32 14.3389 32 32s-14.3389 32 -32 32s-32 -14.3389 -32 -32s14.3389 -32 32 -32zM208 240c17.6611 0 32 14.3389 32 32s-14.3389 32 -32 32
s-32 -14.3389 -32 -32s14.3389 -32 32 -32zM368 112c17.6611 0 32 14.3389 32 32s-14.3389 32 -32 32s-32 -14.3389 -32 -32s14.3389 -32 32 -32z" />
    <glyph glyph-name="crop-alt-secondary" unicode="&#x10f565;" 
d="M160 424v-328h160v-96h-224c-17.6611 0 -32 14.3389 -32 32v392c0 13.2461 10.7539 24 24 24h48c13.2461 0 24 -10.7539 24 -24zM488 96c13.2461 0 24 -10.7539 24 -24v-48c0 -13.2461 -10.7539 -24 -24 -24h-40v96h40z" />
    <glyph glyph-name="digital-tachograph-secondary" unicode="&#x10f566;" horiz-adv-x="640" 
d="M296 112c4.41504 0 8 -3.58496 8 -8v-8c0 -4.41504 -3.58496 -8 -8 -8h-224c-4.41504 0 -8 3.58496 -8 8v8c0 4.41504 3.58496 8 8 8h224zM568 112c4.41504 0 8 -3.58496 8 -8v-8c0 -4.41504 -3.58496 -8 -8 -8h-224c-4.41504 0 -8 3.58496 -8 8v8
c0 4.41504 3.58496 8 8 8h224zM288 288c8.83105 0 16 -7.16895 16 -16v-48c0 -8.83105 -7.16895 -16 -16 -16h-208c-8.83105 0 -16 7.16895 -16 16v48c0 8.83105 7.16895 16 16 16h208z" />
    <glyph glyph-name="drafting-compass-secondary" unicode="&#x10f568;" 
d="M12.5 198.14c-4.86035 7.66992 -1.88965 18 6.0498 22.3906l28.0703 15.5693c7.47949 4.15039 16.6104 1.45996 21.2598 -5.71973c10.1797 -15.7305 22.0645 -29.8623 35.75 -42.5498l-32.6299 -56.5098c-22.915 19.1816 -42.4541 41.4717 -58.5 66.8193zM499.5 198.14
c-51.1045 -80.7207 -140.995 -134.073 -243.5 -134.14c-35.9229 0 -70.4668 6.70996 -102.18 18.7695l32.5293 56.3506c21.9297 -7.18066 45.2363 -11.3516 69.5527 -11.3516c78.8975 0 148.321 40.8877 188.218 102.611c4.64941 7.17969 13.7803 9.87012 21.2598 5.71973
l28.0703 -15.5693c7.93945 -4.39062 10.9102 -14.7207 6.0498 -22.3906z" />
    <glyph glyph-name="drum-steelpan-secondary" unicode="&#x10f56a;" horiz-adv-x="576" 
d="M172 358l25.5996 -44.3398c6.29102 -10.8008 9.89648 -23.3545 9.89648 -36.7441c0 -24.6631 -12.1152 -46.5303 -30.8359 -59.7861c-76.4297 13.4102 -128.66 40.0898 -128.66 70.8701c0 30.1602 50.1104 56.3896 124 70zM288 288
c-35.3047 0.0380859 -63.9619 28.6953 -64 64v13c20.4004 1.91992 41.7998 3 64 3s43.5996 -1.12012 64 -3v-13c-0.0380859 -35.3047 -28.6953 -63.9619 -64 -64zM398.93 217.1c-18.7617 13.2451 -30.9287 35.1318 -30.9287 59.8223
c0 13.3955 3.61035 25.9551 9.90918 36.7578l25.6494 44.4199c74.1602 -13.5996 124.44 -39.8896 124.44 -70.0996c0 -30.8301 -52.4004 -57.54 -129.07 -70.9004zM348.93 210.7c-19.4795 -1.7002 -39.8496 -2.7002 -60.9297 -2.7002s-41.4102 1 -60.8896 2.7002
c8.05957 26.1299 32.1494 45.2998 60.8896 45.2998s52.8301 -19.1699 60.9297 -45.2998z" />
    <glyph glyph-name="feather-alt-secondary" unicode="&#x10f56b;" 
d="M458.38 213.21l-106.55 -53.21h81.1699c-9.07129 -16.4834 -19.2197 -32.168 -30.46 -47.1201l-146.81 -48.8799h101c-35.5703 -30.0703 -79.1104 -51.0996 -132.591 -56.54c-41.7227 -4.78613 -83.0186 -7.25293 -125.989 -7.36035h-0.0605469l206.91 206.9
c4.35156 4.35156 7.04492 10.3623 7.04492 16.9971c0 13.2686 -10.7725 24.041 -24.042 24.041c-6.63379 0 -12.6514 -2.68652 -17.0029 -7.03809l-207 -207c0.0800781 62.8096 4 100.05 7 126.44c25.4404 249.359 389.21 284 441 287.56
c-1.80957 -26.2598 -11.71 -132.86 -53.6201 -234.79z" />
    <glyph glyph-name="fill-secondary" unicode="&#x10f575;" 
d="M386.39 160l-150.609 -150.61c-5.79102 -5.78125 -13.7842 -9.35938 -22.6055 -9.35938c-8.82227 0 -16.8242 3.57812 -22.6152 9.35938l-117.189 117.21c-5.79004 5.77051 -9.375 13.751 -9.375 22.5635c0 0.0175781 0.00488281 0.0390625 0.00488281 0.0566406
c0.0117188 3.77441 0.676758 7.41016 1.87012 10.7803h320.52z" />
    <glyph glyph-name="fill-drip-secondary" unicode="&#x10f576;" horiz-adv-x="576" 
d="M387.39 160l-150.609 -150.61c-5.79102 -5.78125 -13.7842 -9.35938 -22.6055 -9.35938c-8.82227 0 -16.8242 3.57812 -22.6152 9.35938l-117.189 117.21c-5.79004 5.77051 -9.375 13.751 -9.375 22.5635c0 0.0175781 0.00488281 0.0390625 0.00488281 0.0566406
c0.0117188 3.77441 0.676758 7.41016 1.87012 10.7803h320.52zM512 128c0 0 64 -92.6504 64 -128c0 -35.3223 -28.6777 -64 -64 -64s-64 28.6777 -64 64c0 35.3496 64 128 64 128z" />
    <glyph glyph-name="fingerprint-secondary" unicode="&#x10f577;" 
d="M506.1 244.43c6.23047 -28.2295 6.01074 -50.1602 5.83008 -72.3398c-0.109375 -13.1523 -10.8213 -23.7998 -24 -23.7998h-0.199219c-13.1533 0.109375 -23.8018 10.8174 -23.8018 23.9951c0 0.0683594 0.000976562 0.136719 0.000976562 0.205078
c0.209961 24.1895 0.0107422 40.1895 -4.69922 61.5996c-0.407227 1.75 -0.624023 3.54199 -0.624023 5.41504c0 13.2461 10.7549 24 24 24c11.5586 0 21.2188 -8.18848 23.4932 -19.0752zM256.11 202c13.2412 -0.00585938 23.9893 -10.7578 23.9893 -24
c0.0693359 -4.26074 -0.0136719 -8.16016 -0.0136719 -12.4375c0 -73.5283 -10.2744 -144.675 -29.4658 -212.082c-2.83105 -10.0947 -12.0996 -17.5117 -23.0898 -17.5205c-20.9707 0 -25.8506 20.7705 -23.1201 30.4902c18.0342 63.5254 27.7979 130.209 27.7979 199.482
c0 4.03027 -0.0332031 8.05273 -0.0976562 12.0674c0 13.2461 10.7539 24 24 24zM144.56 303.55c5.4082 -4.40234 8.84082 -11.1191 8.84082 -18.6289c0 -5.7207 -2.00488 -10.9756 -5.35059 -15.1006c-17.4873 -21.3232 -28.0283 -48.626 -28.0283 -78.3281
c0 -0.892578 0.00976562 -1.7832 0.0283203 -2.67188c0.0537109 -3.37207 0.0878906 -6.01855 0.0878906 -9.40332c0 -38.1953 -3.41211 -75.6006 -9.94727 -111.927c-0.820312 -4.5498 -7.78027 -22.8604 -27.8906 -19.3604
c-11.2061 2.02148 -19.7393 11.8135 -19.7393 23.5977c0 1.45801 0.129883 2.88574 0.379883 4.27246c6.03809 33.5508 9.18359 67.4238 9.18359 102.702c0 3.12793 -0.0244141 6.25098 -0.0742188 9.36816c-0.0136719 0.915039 0.0390625 1.90137 0.0390625 2.82031
c0 41.3604 14.5098 79.3594 38.7109 109.18c4.40234 5.41309 11.1221 8.84961 18.6367 8.84961c5.73047 0 10.9951 -2.01367 15.123 -5.37012z" />
    <glyph glyph-name="glass-martini-alt-secondary" unicode="&#x10f57b;" 
d="M256 234.87l-101.16 101.13h202.271z" />
    <glyph glyph-name="grin-squint-tears-secondary" unicode="&#x10f586;" 
d="M414.12 304.4c24 3.5 42.0996 7.39941 56.5 11.5c54.7998 -94.9004 42 -218.2 -39.2002 -299.301c-81.2002 -81.0996 -204.5 -94 -299.3 -39.1992c4.09961 14.3994 8.09961 32.5 11.5 56.5c2.89941 20.5 -12.5 49.5996 -45.7002 45.6992
c-24.0996 -3.5 -42.0996 -7.39941 -56.5 -11.5c-54.7998 94.9004 -42 218.2 39.2002 299.301c81.2002 81.0996 204.5 94 299.3 39.1992c-4.09961 -14.3994 -8.09961 -32.5 -11.5 -56.5c-2.90039 -20.5996 12.7002 -49.5996 45.7002 -45.6992zM233.22 251.4
c-0.22168 -0.913086 -0.34668 -1.86035 -0.34668 -2.84082c0 -6.62305 5.37695 -12 12 -12c0.980469 0 1.93457 0.118164 2.84668 0.34082l90.5 22.5996c13.1006 3.2998 11.6006 22.4004 -1.7998 23.5996l-52.2998 4.80078l-4.7998 52.2998
c-1.2002 13.2998 -20.3008 15 -23.6006 1.7998zM164.82 111.7c1.2998 -13.4004 20.3994 -14.9004 23.5 -1.7002l22.5801 90.5c0.22168 0.913086 0.34668 1.85938 0.34668 2.84082c0 6.62207 -5.37695 12 -12 12c-0.980469 0 -1.93457 -0.118164 -2.84668 -0.34082
l-90.5 -22.5996c-13.1006 -3.30078 -11.6006 -22.4004 1.7998 -23.6006l52.2998 -4.7998zM380.52 67.5c42.8008 42.9004 68 122.3 35.7002 167.6c-2.90039 4.08398 -7.64941 6.75098 -13.0352 6.75098c-6.22168 0 -11.6191 -3.55859 -14.2646 -8.75098
c-14.5996 -28.1992 -42.4004 -63.8994 -76.2998 -97.7998c-33.9004 -33.8994 -69.5 -61.7002 -97.7998 -76.2998c-5.18555 -2.62598 -8.74219 -7.98828 -8.74219 -14.1934c0 -5.37012 2.66406 -10.123 6.74219 -13.0068c14.3994 -10.2002 32.0996 -14.7002 51 -14.7002
c41 0 87.3994 21.1006 116.699 50.4004z" />
    <glyph glyph-name="grin-tears-secondary" unicode="&#x10f588;" horiz-adv-x="640" 
d="M496.42 177.9c11.7998 -82.3008 29.9004 -100.4 35.7998 -106.301c0.959961 -0.890625 1.94824 -1.71582 3 -2.5c-42.7002 -74.6992 -123 -125.1 -215.2 -125.1c-92.1992 0 -172.5 50.4004 -215.199 125c1 0.900391 2.09961 1.59961 3 2.5
c5.89941 6 24 24.0996 35.7998 106.4c2.89941 20.3994 -12.5 49.5996 -45.7002 45.6992c-8.90039 -1.2998 -16.7998 -2.69922 -24.2998 -4.09961c13.7002 124 118.66 220.5 246.38 220.5s232.72 -96.5 246.42 -220.5c-7.5 1.40039 -15.4004 2.7998 -24.2998 4.09961
c-1.8584 0.262695 -3.71777 0.4375 -5.64746 0.4375c-22.3252 0 -40.4502 -18.125 -40.4502 -40.4502c0 -1.92969 0.135742 -3.8291 0.397461 -5.68652zM344.22 224.6c-0.700195 -8.5 10.7002 -11.8994 14.9004 -4.5l9.5 17c7.7002 13.7002 19.2002 21.6006 31.5 21.6006
s23.7998 -7.90039 31.5 -21.6006l9.5 -17c4.09961 -7.5 15.5996 -4.09961 14.8994 4.5c-3.2998 42.1006 -32.1992 71.4004 -56 71.4004c-23.7998 0 -52.6992 -29.2998 -55.7998 -71.4004zM184.22 224.6c-0.700195 -8.5 10.7002 -11.8994 14.9004 -4.5l9.5 17
c7.7002 13.7002 19.2002 21.6006 31.5 21.6006s23.7998 -7.90039 31.5 -21.6006l9.5 -17c4.09961 -7.5 15.5996 -4.09961 14.8994 4.5c-3.2998 42.1006 -32.1992 71.4004 -56 71.4004c-23.7998 0 -52.6992 -29.2998 -55.7998 -71.4004zM463.82 109.3
c0.140625 0.854492 0.212891 1.71289 0.212891 2.60742c0 8.8584 -7.19238 16.0498 -16.0508 16.0498c-1.70215 0 -3.34277 -0.264648 -4.88281 -0.756836c-30.1992 -9.7002 -75.0996 -15.2002 -123.1 -15.2002s-92.8799 5.5 -123.08 15.2002
c-1.55176 0.501953 -3.20801 0.791992 -4.92578 0.791992c-8.83105 0 -16 -7.16992 -16 -16c0 -0.917969 0.0771484 -1.81738 0.225586 -2.69238c9.2998 -55 83.2002 -93.2998 143.8 -93.2998c60.6006 0 134.5 38.2998 143.801 93.2998z" />
    <glyph glyph-name="grip-horizontal-secondary" unicode="&#x10f58d;" horiz-adv-x="448" 
d="M96 160c17.6611 0 32 -14.3389 32 -32v-64c0 -17.6611 -14.3389 -32 -32 -32h-64c-17.6611 0 -32 14.3389 -32 32v64c0 17.6611 14.3389 32 32 32h64zM256 160c17.6611 0 32 -14.3389 32 -32v-64c0 -17.6611 -14.3389 -32 -32 -32h-64c-17.6611 0 -32 14.3389 -32 32v64
c0 17.6611 14.3389 32 32 32h64zM416 160c17.6611 0 32 -14.3389 32 -32v-64c0 -17.6611 -14.3389 -32 -32 -32h-64c-17.6611 0 -32 14.3389 -32 32v64c0 17.6611 14.3389 32 32 32h64z" />
    <glyph glyph-name="grip-vertical-secondary" unicode="&#x10f58e;" horiz-adv-x="320" 
d="M288 96c17.6611 0 32 -14.3389 32 -32v-64c0 -17.6611 -14.3389 -32 -32 -32h-64c-17.6611 0 -32 14.3389 -32 32v64c0 17.6611 14.3389 32 32 32h64zM288 416c17.6611 0 32 -14.3389 32 -32v-64c0 -17.6611 -14.3389 -32 -32 -32h-64c-17.6611 0 -32 14.3389 -32 32v64
c0 17.6611 14.3389 32 32 32h64zM288 256c17.6611 0 32 -14.3389 32 -32v-64c0 -17.6611 -14.3389 -32 -32 -32h-64c-17.6611 0 -32 14.3389 -32 32v64c0 17.6611 14.3389 32 32 32h64z" />
    <glyph glyph-name="headphones-alt-secondary" unicode="&#x10f58f;" 
d="M496 32h-16c-8.83105 0 -16 7.16895 -16 16v112c0 114.67 -93.3301 207.8 -208 207.82c-114.67 0.0195312 -208 -93.1504 -208 -207.82v-112c0 -8.83105 -7.16895 -16 -16 -16h-16c-8.83105 0 -16 7.16895 -16 16v112c4.57031 136.87 112.91 256 256 256
s251.43 -119.13 256 -256v-112c0 -8.83105 -7.16895 -16 -16 -16z" />
    <glyph glyph-name="headset-secondary" unicode="&#x10f590;" 
d="M192 -16c0 26.4922 21.5078 48 48 48h32c26.4922 0 48 -21.5078 48 -48h101.72c23.335 0 42.2803 18.9453 42.2803 42.2803s0 163.29 -0.120117 165.72h0.120117c0 114.69 -93.3096 208 -208 208s-208 -93.3096 -208 -208v-16c0 -8.83105 -7.16895 -16 -16 -16h-16
c-8.83105 0 -16 7.16895 -16 16v16c4.58008 137.17 113.18 256 256 256s251.42 -118.83 256 -256v-165.72c0 -49.8271 -40.4531 -90.2803 -90.2803 -90.2803h-181.72c-26.4922 0 -48 21.5078 -48 48z" />
    <glyph glyph-name="hot-tub-secondary" unicode="&#x10f593;" 
d="M304 371.51c27.6797 -22.6299 45.7402 -58.0498 50.1201 -97.1602c1.08008 -9.7793 -6.49023 -18.3496 -16 -18.3496h-16.1201c-8.18262 0.111328 -14.9014 6.36719 -15.7598 14.3496c-3.18066 25.3906 -14.6406 47.9707 -32 62.1406
c-27.7305 22.6299 -45.79 58.0498 -50.1299 97.1602c-1.09082 9.7793 6.48926 18.3496 16 18.3496h16.1201c8.18652 -0.100586 14.9102 -6.35645 15.7695 -14.3398c3.17969 -25.4004 14.6299 -47.9805 32 -62.1504zM64 320c-35.3223 0 -64 28.6777 -64 64s28.6777 64 64 64
s64 -28.6777 64 -64s-28.6777 -64 -64 -64zM462.08 274.35c1.08008 -9.7793 -6.49023 -18.3496 -15.96 -18.3496h-16.1201c-8.18262 0.111328 -14.9014 6.36719 -15.7598 14.3496c-3.18066 25.3906 -14.6406 47.9707 -32 62.1406
c-27.7305 22.6299 -45.79 58.0498 -50.1299 97.1602c-1.09082 9.7793 6.48926 18.3496 16 18.3496h16.1201c8.16309 -0.125977 14.8623 -6.37305 15.7197 -14.3398c3.17969 -25.4004 14.6299 -47.9805 32 -62.1504c27.7295 -22.6299 45.79 -58.0498 50.1299 -97.1602z
M106.67 288c14.3789 0 27.71 -4.78223 38.4004 -12.7998l110.93 -83.2002h-256v32c0 35.3223 28.6777 64 64 64h42.6699z" />
    <glyph glyph-name="hotel-secondary" unicode="&#x10f594;" horiz-adv-x="576" 
d="M288 160c70.6455 0 128 -57.3545 128 -128h-256c0 70.6455 57.3545 128 128 128zM192 204.8c0 -6.39941 -6.40039 -12.7998 -12.7998 -12.7998h-38.4004c-6.39941 0 -12.7998 6.40039 -12.7998 12.7998v38.4004c0 6.39941 6.40039 12.7998 12.7998 12.7998h38.4004
c6.39941 0 12.7998 -6.40039 12.7998 -12.7998v-38.4004zM140.8 288c-6.39941 0 -12.7998 6.40039 -12.7998 12.7998v38.4004c0 6.39941 6.40039 12.7998 12.7998 12.7998h38.4004c6.39941 0 12.7998 -6.40039 12.7998 -12.7998v-38.4004
c0 -6.39941 -6.40039 -12.7998 -12.7998 -12.7998h-38.4004zM268.8 192c-6.39941 0 -12.7998 6.40039 -12.7998 12.7998v38.4004c0 6.39941 6.40039 12.7998 12.7998 12.7998h38.4004c6.39941 0 12.7998 -6.40039 12.7998 -12.7998v-38.4004
c0 -6.39941 -6.40039 -12.7998 -12.7998 -12.7998h-38.4004zM268.8 288c-6.39941 0 -12.7998 6.40039 -12.7998 12.7998v38.4004c0 6.39941 6.40039 12.7998 12.7998 12.7998h38.4004c6.39941 0 12.7998 -6.40039 12.7998 -12.7998v-38.4004
c0 -6.39941 -6.40039 -12.7998 -12.7998 -12.7998h-38.4004zM435.2 256c6.39941 0 12.7998 -6.40039 12.7998 -12.7998v-38.4004c0 -6.39941 -6.40039 -12.7998 -12.7998 -12.7998h-38.4004c-6.39941 0 -12.7998 6.40039 -12.7998 12.7998v38.4004
c0 6.39941 6.40039 12.7998 12.7998 12.7998h38.4004zM435.2 352c6.39941 0 12.7998 -6.40039 12.7998 -12.7998v-38.4004c0 -6.39941 -6.40039 -12.7998 -12.7998 -12.7998h-38.4004c-6.39941 0 -12.7998 6.40039 -12.7998 12.7998v38.4004
c0 6.39941 6.40039 12.7998 12.7998 12.7998h38.4004z" />
    <glyph glyph-name="joint-secondary" unicode="&#x10f595;" horiz-adv-x="640" 
d="M487.66 306.37c34.1191 -23.7637 56.3398 -63.2021 56.3398 -107.896v-0.165039v-30.3096c0 -4.41504 -3.58496 -8 -8 -8h-48c-4.41504 0 -8 3.58496 -8 8v30.3096c0 0.0439453 0.0800781 0.0380859 0.0800781 0.0810547c0 28.3379 -14.1387 53.3994 -35.7402 68.5098
c-35.7803 25.0693 -60.3398 63.0098 -60.3398 106.699v66.4004c0 4.41504 3.58496 8 8 8h48c4.41504 0 8 -3.58496 8 -8v-62.3096c0 -29.0303 15.8496 -54.6904 39.6602 -71.3203zM553.28 360.91c52.3916 -35.0557 86.7197 -94.6484 86.7197 -162.362v-0.238281v-30.3096
c0 -4.41504 -3.58496 -8 -8 -8h-48c-4.41504 0 -8 3.58496 -8 8v30.2998c0 0.0634766 0.15332 0.0322266 0.15332 0.0957031c0 51.9297 -26.9004 97.627 -67.5137 123.904c-18.4697 11.9805 -28.6396 33.3906 -28.6396 55.3906v62.3096c0 4.41504 3.58496 8 8 8h48
c4.41504 0 8 -3.58496 8 -8v-62.3096c0.0898438 -7.04102 3.75391 -13.2129 9.28027 -16.7803z" />
    <glyph glyph-name="luggage-cart-secondary" unicode="&#x10f59d;" horiz-adv-x="640" 
d="M480 400v-272h-192v272c0 26.4922 21.5078 48 48 48h96c26.4922 0 48 -21.5078 48 -48zM432 352v48h-96v-48h96zM192 320c0 17.6611 14.3389 32 32 32h32v-224h-32c-17.6611 0 -32 14.3389 -32 32v160zM544 352c17.6611 0 32 -14.3389 32 -32v-160
c0 -17.6611 -14.3389 -32 -32 -32h-32v224h32zM450.74 0h90.5195c1.76562 -4.99707 2.75488 -10.373 2.75488 -15.9707c0 -26.4922 -21.5078 -48 -48 -48s-48 21.5078 -48 48c0 5.59766 0.959961 10.9736 2.72559 15.9707zM162.74 0h90.5195
c1.76562 -4.99707 2.75488 -10.373 2.75488 -15.9707c0 -26.4922 -21.5078 -48 -48 -48s-48 21.5078 -48 48c0 5.59766 0.959961 10.9736 2.72559 15.9707z" />
    <glyph glyph-name="map-marked-secondary" unicode="&#x10f59f;" horiz-adv-x="576" 
d="M288 88.3301c14.6406 0.000976562 27.7393 6.56934 36.5098 16.9502c19.6699 23.2002 40.5703 49.6299 59.4902 76.7197v-246l-192 64v182c18.9199 -27.0898 39.8301 -53.5098 59.4902 -76.6699c8.76074 -10.4014 21.8623 -16.9893 36.5098 -17zM20.1201 232l118.63 47.5
c5.77441 -16.0713 12.9648 -31.7354 21.25 -46.4199v-233.08l-138.06 -62.8604c-1.83496 -0.733398 -3.8457 -1.14355 -5.94043 -1.14355c-8.83105 0 -16 7.16992 -16 16v0.00390625v250.34c0.0224609 13.4482 8.33984 24.9502 20.1201 29.6602zM554.06 286.79
c1.83496 0.733398 3.8457 1.19336 5.94043 1.19336c8.8252 0 15.9912 -7.16016 16 -15.9834v-250.34c-0.000976562 -13.4707 -8.3252 -24.9941 -20.1201 -29.71l-139.88 -55.9502v288z" />
    <glyph glyph-name="map-marked-alt-secondary" unicode="&#x10f5a0;" horiz-adv-x="576" 
d="M554.06 286.84c1.83496 0.733398 3.8457 1.14355 5.94043 1.14355c8.8252 0 15.9912 -7.16016 16 -15.9834v-250.34c-0.000976562 -13.4707 -8.3252 -24.9941 -20.1201 -29.71l-139.88 -55.9502v288zM20.1201 232l118.63 47.5
c5.77441 -16.0713 12.9648 -31.7354 21.25 -46.4199v-233.08l-138.06 -62.8604c-1.83496 -0.733398 -3.8457 -1.14355 -5.94043 -1.14355c-8.83105 0 -16 7.16992 -16 16v0.00390625v250.34c0.0224609 13.4482 8.33984 24.9502 20.1201 29.6602zM288 88.3301
c14.6406 0.000976562 27.7393 6.56934 36.5098 16.9502c19.6699 23.2002 40.5703 49.6299 59.4902 76.7197v-246l-192 64v182c18.9199 -27.0898 39.8301 -53.5098 59.4902 -76.6699c8.76074 -10.4014 21.8623 -16.9893 36.5098 -17z" />
    <glyph glyph-name="marker-secondary" unicode="&#x10f5a1;" 
d="M169.36 233.37l128 -128l-75.3604 -75.4199c-51.1611 -51.1602 -119.559 -85.4336 -195.34 -93.7998c-0.880859 -0.0986328 -1.77539 -0.148438 -2.68262 -0.148438c-13.2461 0 -24 10.7539 -24 24c0 0.90625 0.0742188 1.77734 0.172852 2.6582v0.229492
c8.43066 75.6982 42.7129 144.011 93.8496 195.11z" />
    <glyph glyph-name="medal-secondary" unicode="&#x10f5a2;" 
d="M127.18 448c11.6572 -0.000976562 21.8467 -6.21387 27.4404 -15.54l69.1299 -115.25c-41.9092 -6.53223 -79.9395 -25.6699 -109.56 -53.3896l-111.271 159c-1.81836 2.5957 -2.89453 5.77148 -2.89453 9.17969c0 8.82227 7.15527 15.9863 15.9746 16h111.18zM496 448
c8.81934 -0.0136719 15.9668 -7.19336 15.9668 -16.0156c0 -3.40723 -1.06836 -6.56836 -2.88672 -9.16406l-111.271 -158.95c-29.6221 27.7168 -67.6514 46.8506 -109.56 53.3799l69.1299 115.21c5.59375 9.32617 15.7832 15.5391 27.4404 15.54h111.18z" />
    <glyph glyph-name="monument-secondary" unicode="&#x10f5a6;" horiz-adv-x="384" 
d="M384 -16v-32c0 -8.83105 -7.16895 -16 -16 -16h-352c-8.83105 0 -16 7.16895 -16 16v32c0 8.83105 7.16895 16 16 16h352c8.83105 0 16 -7.16895 16 -16z" />
    <glyph glyph-name="mortar-pestle-secondary" unicode="&#x10f5a7;" 
d="M501.54 387.09l-99.0801 -99.0898h-151.37l203.811 152.86c5.95898 4.46777 13.3594 7.11523 21.373 7.11523c19.6924 0 35.6797 -15.9873 35.6797 -35.6797c0 -9.84277 -3.95898 -18.748 -10.4131 -25.2061z" />
    <glyph glyph-name="paint-brush-alt-secondary" unicode="&#x10f5a9;" 
d="M490.92 315l-218.81 -221.51l-78 65l171.89 256.41c62 88.3994 198.15 -19.4199 124.92 -99.9004z" />
    <glyph glyph-name="paint-roller-secondary" unicode="&#x10f5aa;" 
d="M384 288h-352c-17.6611 0 -32 14.3389 -32 32v96c0 17.6611 14.3389 32 32 32h352c17.6611 0 32 -14.3389 32 -32v-96c0 -17.6611 -14.3389 -32 -32 -32z" />
    <glyph glyph-name="passport-secondary" unicode="&#x10f5ab;" horiz-adv-x="448" 
d="M224 384c70.6455 0 128 -57.3545 128 -128s-57.3545 -128 -128 -128s-128 57.3545 -128 128s57.3545 128 128 128zM318.38 272c-5.32324 31.1582 -25.623 57.2422 -53.2998 70.4102c7.67969 -19.0605 12.7197 -43.4102 14.21 -70.4102h39.0898zM129.62 240
c5.32715 -31.1572 25.625 -57.2393 53.2998 -70.4102c-7.67969 19.0605 -12.7197 43.4102 -14.21 70.4102h-39.0898zM168.71 272c1.49023 27 6.54004 51.3496 14.21 70.4102c-27.6768 -13.168 -47.9766 -39.252 -53.2998 -70.4102h39.0898zM224 161.31
c7.69043 7.4502 20.7695 34.4209 23.4297 78.6904h-46.8701c2.6709 -44.2598 15.75 -71.2402 23.4404 -78.6904zM200.57 272h46.8701c-2.66016 44.2598 -15.7402 71.2402 -23.4307 78.6904c-7.7002 -7.4502 -20.7793 -34.4307 -23.4395 -78.6904zM265.08 169.59
c27.6768 13.168 47.9766 39.252 53.2998 70.4102h-39.0898c-1.49023 -27 -6.53027 -51.3496 -14.21 -70.4102z" />
    <glyph glyph-name="pen-fancy-secondary" unicode="&#x10f5ac;" 
d="M163.25 198.13l98.8799 -98.8799l-33.0703 -84.0703c-3.17676 -9.53223 -10.707 -17.0625 -20.2393 -20.2393l-176.82 -58.9404l-4.67969 4.67969l92.8896 92.8906c2.55957 -0.660156 5 -1.57031 7.7998 -1.57031c17.6611 0 32 14.3389 32 32s-14.3389 32 -32 32
s-32 -14.3389 -32 -32c0 -2.76953 0.910156 -5.24023 1.57031 -7.7998l-92.8896 -92.8906l-4.69043 4.69043l58.9404 176.82c3.17676 9.53223 10.707 17.0625 20.2393 20.2393z" />
    <glyph glyph-name="pen-nib-secondary" unicode="&#x10f5ad;" 
d="M288 352l128 -128l-42.79 -151.4c-5.76074 -20.3848 -21.3594 -36.6465 -41.3496 -43.3096l-279.86 -93.29l-14.6904 14.6904l150.11 150.109c6.35059 -3.05957 13.4688 -4.77441 20.9844 -4.77441c26.7402 0 48.4492 21.71 48.4492 48.4502
s-21.709 48.4502 -48.4492 48.4502s-48.4502 -21.71 -48.4502 -48.4502c0 -7.51562 1.78613 -14.7051 4.8457 -21.0557l-150.109 -150.11l-14.6904 14.6904l93.29 279.86c6.66309 19.9902 22.9248 35.5889 43.3096 41.3496z" />
    <glyph glyph-name="pencil-ruler-secondary" unicode="&#x10f5ae;" 
d="M138.25 320.95l61.6699 61.6797l44.0801 -44.1201l-134.54 -134.56l-100.17 100.189c-5.7373 5.74414 -9.28711 13.6826 -9.28711 22.4346s3.5498 16.6816 9.28711 22.4258l89.71 89.7002c5.74316 5.74219 13.6836 9.2959 22.4395 9.2959
c8.75488 0 16.6875 -3.55371 22.4307 -9.2959l33.6299 -33.7002l-61.6602 -61.6299c-1.43652 -1.43457 -2.3252 -3.41797 -2.3252 -5.60645c0 -2.1875 0.888672 -4.16992 2.3252 -5.60352l11.21 -11.21c1.43359 -1.43359 3.41602 -2.32031 5.60156 -2.32031
s4.16504 0.886719 5.59863 2.32031zM502.71 79.8496c5.73926 -5.74121 9.29102 -13.6777 9.29102 -22.4287s-3.55176 -16.6797 -9.29102 -22.4209l-89.71 -89.71c-5.73926 -5.74414 -13.6768 -9.29883 -22.4297 -9.29883s-16.6816 3.55469 -22.4199 9.29883l-100.21 100.2
l134.579 134.51l44.1602 -44.1104l-61.6797 -61.6797c-1.43652 -1.43359 -2.3252 -3.41797 -2.3252 -5.60645c0 -2.1875 0.888672 -4.16992 2.3252 -5.60352l11.1904 -11.1904c1.43359 -1.43555 3.41797 -2.3252 5.60547 -2.3252c2.18848 0 4.16992 0.889648 5.60449 2.3252
l61.6797 61.6807z" />
    <glyph glyph-name="plane-arrival-secondary" unicode="&#x10f5af;" horiz-adv-x="640" 
d="M640 -16v-32c0 -8.83105 -7.16895 -16 -16 -16h-608c-8.83105 0 -16 7.16895 -16 16v32c0 8.83105 7.16895 16 16 16h608c8.83105 0 16 -7.16895 16 -16z" />
    <glyph glyph-name="prescription-secondary" unicode="&#x10f5b1;" horiz-adv-x="384" 
d="M379.32 174l-78.0605 -78l-45.2598 -45.29l-78 -78.0703c-2.89648 -2.89648 -6.89648 -4.68945 -11.3125 -4.68945s-8.4209 1.79297 -11.3174 4.68945l-22.6299 22.6299c-2.89746 2.89648 -4.69043 6.89746 -4.69043 11.3135s1.79297 8.4209 4.69043 11.3174
l201.319 201.38c2.89648 2.89648 6.89746 4.68945 11.3135 4.68945s8.4209 -1.79297 11.3174 -4.68945l22.6299 -22.6299c2.90234 -2.89746 4.69922 -6.90234 4.69922 -11.3232s-1.79688 -8.42969 -4.69922 -11.3271z" />
    <glyph glyph-name="shuttle-van-secondary" unicode="&#x10f5b6;" horiz-adv-x="640" 
d="M160 128c44.1533 0 80 -35.8467 80 -80s-35.8467 -80 -80 -80s-80 35.8467 -80 80s35.8467 80 80 80zM480 128c44.1533 0 80 -35.8467 80 -80s-35.8467 -80 -80 -80s-80 35.8467 -80 80s35.8467 80 80 80z" />
    <glyph glyph-name="smile-plus-secondary" unicode="&#x10f5b9;" horiz-adv-x="640" 
d="M208 352c114.9 0 208 -93.0996 208 -208s-93.0996 -208 -208 -208s-208 93.0996 -208 208s93.0996 208 208 208zM272 218.8c-14.791 0 -26.7998 -12.0088 -26.7998 -26.7998s12.0088 -26.7998 26.7998 -26.7998s26.7998 12.0088 26.7998 26.7998
s-12.0088 26.7998 -26.7998 26.7998zM144 218.8c-14.791 0 -26.7998 -12.0088 -26.7998 -26.7998s12.0088 -26.7998 26.7998 -26.7998s26.7998 12.0088 26.7998 26.7998s-12.0088 26.7998 -26.7998 26.7998zM308.2 77.9004c2.32129 2.78613 3.72656 6.3877 3.72656 10.2939
c0 8.86914 -7.20117 16.0703 -16.0703 16.0703c-4.85449 0 -9.20898 -2.15723 -12.1562 -5.56445c-18.3857 -21.2803 -45.5205 -34.7549 -75.8223 -34.7549c-30.2529 0 -57.3936 13.4336 -75.7783 34.6543c-2.91406 3.95215 -7.5957 6.5 -12.8779 6.5
c-8.83008 0 -16 -7.16895 -16 -16c0 -4.3584 1.74707 -8.3125 4.57812 -11.1992c24.2734 -28.1436 60.127 -45.9697 100.171 -45.9697c40.043 0 75.9561 17.8262 100.229 45.9697z" />
    <glyph glyph-name="solar-panel-secondary" unicode="&#x10f5ba;" horiz-adv-x="640" 
d="M585.2 421.26c58.1094 -342.42 54.7998 -321.39 54.7598 -325.47c-0.0800781 -17.2305 -14.3604 -31.79 -32.5898 -31.79h-574.771c-18.3096 0 -32.5996 14.6797 -32.5996 32c0 3.91992 -3.32031 -17.1602 54.79 325.26c2.7002 15.1748 15.9688 26.7412 31.9141 26.7412
c0.0751953 0 0.150391 0 0.225586 -0.000976562h466.13c0.0751953 0.000976562 0.147461 -0.0283203 0.222656 -0.0283203c15.9453 0 29.2178 -11.5371 31.918 -26.7119zM259.83 384l-9.77051 -96h139.87l-9.76953 96h-120.33zM184.66 128l11.4297 112h-106l-19 -112h113.57
zM201 288l9.71973 96h-96.1895l-16.29 -96h102.76zM233.82 128h172.399l-11.3994 112h-149.601zM429.27 384l9.73047 -96h102.75l-16.29 96h-96.1904zM455.33 128h113.6l-19 112h-106z" />
    <glyph glyph-name="spa-secondary" unicode="&#x10f5bb;" horiz-adv-x="576" 
d="M392.33 241.09c-22.0752 -12.5488 -42.1475 -27.6211 -60.2598 -45.1699c-16.7646 -15.0479 -31.3984 -31.8096 -44.0703 -50.5195c-12.959 19.0479 -27.8984 36.1152 -45 51.4492c-17.8027 17.2432 -37.5273 32.0557 -59.2197 44.3906
c16.4697 70.4502 51.75 132.939 96.7393 172.069c2.06445 1.67871 4.69727 2.68555 7.5625 2.68555s5.51367 -1.00684 7.57812 -2.68555c44.9502 -39.1592 80.2295 -101.72 96.6699 -172.22z" />
    <glyph glyph-name="splotch-secondary" unicode="&#x10f5bc;" 
d="M281.69 323.39c10.4795 -39.5898 18.8691 -97.04 105.069 -126.56c-79.2402 -40.5801 -77.6094 -106.16 -79.8701 -135.83c-63.1299 47.46 -83 67.1699 -186.409 44.5996c16.7998 33.6807 34 85.0605 -10.8604 146.08c103.53 -8.08984 124.36 22.4199 172.07 71.71z" />
    <glyph glyph-name="spray-can-secondary" unicode="&#x10f5bd;" 
d="M288 416c17.6611 0 32 -14.3389 32 -32s-14.3389 -32 -32 -32s-32 14.3389 -32 32s14.3389 32 32 32zM384 320c17.6611 0 32 -14.3389 32 -32s-14.3389 -32 -32 -32s-32 14.3389 -32 32s14.3389 32 32 32zM480 224c17.6611 0 32 -14.3389 32 -32s-14.3389 -32 -32 -32
s-32 14.3389 -32 32s14.3389 32 32 32zM384 416c17.6611 0 32 -14.3389 32 -32s-14.3389 -32 -32 -32s-32 14.3389 -32 32s14.3389 32 32 32zM480 320c17.6611 0 32 -14.3389 32 -32s-14.3389 -32 -32 -32s-32 14.3389 -32 32s14.3389 32 32 32zM480 352
c-17.6611 0 -32 14.3389 -32 32s14.3389 32 32 32s32 -14.3389 32 -32s-14.3389 -32 -32 -32zM160 192c44.1533 0 80 -35.8467 80 -80s-35.8467 -80 -80 -80s-80 35.8467 -80 80s35.8467 80 80 80z" />
    <glyph glyph-name="swimmer-secondary" unicode="&#x10f5c4;" horiz-adv-x="640" 
d="M538 328c21.6621 -4.63574 37.9902 -23.9014 37.9902 -46.9385c0 -26.4941 -21.5088 -48.0029 -48.002 -48.0029c-3.45703 0 -6.82812 0.366211 -10.0781 1.06152l-100.351 21.5303c-1.06738 0.220703 -2.17676 0.329102 -3.31055 0.329102
c-3.46289 0 -6.67383 -1.08789 -9.30859 -2.93945l-18 -12.8604l112.84 -80.5996c-17.5107 -1.04004 -34.5303 -8.4502 -49.3906 -22.1602c-3.5293 -3.25977 -15.2695 -9.41992 -34.3896 -9.41992s-30.8496 6.16016 -34.3896 9.41992
c-16.0107 14.7705 -34.46 22.5801 -53.46 22.5801h-16.3008c-18.96 0 -37.46 -7.80957 -53.46 -22.5801c-3.5293 -3.25977 -15.2695 -9.41992 -34.3896 -9.41992s-30.8496 6.16016 -34.3896 9.41992c-4.8623 4.41797 -10.1357 8.27441 -15.8604 11.5801l68.6299 98
c7.33887 10.5215 16.2793 19.5537 26.7197 27l80.0205 57.1504c18.3535 13.0869 40.834 20.8457 65.0732 20.8457c8.05371 0 15.9111 -0.850586 23.4863 -2.46582zM112 352c44.1533 0 80 -35.8467 80 -80s-35.8467 -80 -80 -80s-80 35.8467 -80 80s35.8467 80 80 80z" />
    <glyph glyph-name="swimming-pool-secondary" unicode="&#x10f5c5;" horiz-adv-x="640" 
d="M189.61 73.4297c-8.46875 7.88281 -18.5137 14.0664 -29.6104 18.0703v228.5c0 52.9834 43.0166 96 96 96s96 -43.0166 96 -96v-16c0 -8.83105 -7.16895 -16 -16 -16h-32c-8.83105 0 -16 7.16895 -16 16v16c0 17.6611 -14.3389 32 -32 32s-32 -14.3389 -32 -32v-96h192
v96c0 52.9834 43.0166 96 96 96s96 -43.0166 96 -96v-16c0 -8.83105 -7.16895 -16 -16 -16h-32c-8.83105 0 -16 7.16895 -16 16v16c0 17.6611 -14.3389 32 -32 32s-32 -14.3389 -32 -32v-228.51c-11.0986 -4 -21.1445 -10.1846 -29.6104 -18.0703
c-3.5293 -3.25977 -15.2695 -9.41992 -34.3896 -9.41992v96h-192v-96c-19.1201 0 -30.8604 6.16016 -34.3896 9.42969z" />
    <glyph glyph-name="tint-slash-secondary" unicode="&#x10f5c7;" horiz-adv-x="640" 
d="M162.72 192.22l273.681 -211.52c-30.8281 -27.7607 -71.6924 -44.6904 -116.4 -44.7002c-97.2803 0 -176 79.6504 -176 178.09c0 29.7803 7.30957 54.6299 18.7197 78.1299zM495.2 97l-262.9 203.14c21.6201 33.6807 42.9805 73.3799 58.4805 125.681
c9 30.1201 50.5 28.7793 58.4395 0c46.9902 -158.48 146.78 -200.07 146.78 -311.82c0 -5.7002 -0.280273 -11.3896 -0.799805 -17z" />
    <glyph glyph-name="tooth-secondary" unicode="&#x10f5c9;" horiz-adv-x="448" 
d="M444 351.75c10.1299 -41.6299 0.419922 -80.8203 -21.5303 -110.43c-23.3701 -31.5703 -32.6895 -68.6504 -36.2998 -107.32c-4.41016 -47.1602 -10.3301 -94.1699 -20.9395 -140.32l-7.80078 -33.9492c-3.06836 -13.5518 -15.1953 -23.6836 -29.6699 -23.6836
c-14.2822 0 -26.2764 9.86133 -29.54 23.1436l-34.4697 138.39c-4.40332 17.8652 -20.5459 31.1309 -39.7627 31.1309s-35.3535 -13.2656 -39.7568 -31.1309l-34.4707 -138.42c-3.26367 -13.2822 -15.2607 -23.1475 -29.543 -23.1475
c-14.4746 0 -26.5977 10.1357 -29.667 23.6875l-7.7998 33.9502c-10.6104 46.1592 -16.54 93.1592 -20.9404 140.35c-3.60938 38.6904 -12.9297 75.7803 -36.29 107.35c-21.9199 29.5908 -31.6299 68.7803 -21.5195 110.4c11 45.25 47.1299 82.0498 92 93.7197
c23.4297 6.08984 46.1104 0.540039 66.8096 -10.3096l100.54 -64.6201c2.45117 -1.52734 5.34473 -2.40918 8.44336 -2.40918c8.83008 0 16 7.16895 16 16c0 5.56641 -2.81543 10.4521 -7.13281 13.3193l-28.3203 18.21c3.54004 1.75 7.25 3.08984 10.5 5.47949
c26.1602 19.2305 56.9502 32.6904 89.1602 24.3301c44.8799 -11.6602 81 -48.4697 92 -93.7197z" />
    <glyph glyph-name="umbrella-beach-secondary" unicode="&#x10f5ca;" horiz-adv-x="640" 
d="M253 0l72.9004 200.37l60.0996 -21.8701l-64.9404 -178.5h-68.0596z" />
    <glyph glyph-name="vector-square-secondary" unicode="&#x10f5cb;" 
d="M160 -32v64h192v-64h-192zM32 96v192h64v-192h-64zM160 352v64h192v-64h-192zM416 288h64v-192h-64v192z" />
    <glyph glyph-name="weight-hanging-secondary" unicode="&#x10f5cd;" 
d="M164.47 320c-3.52344 9.98633 -5.44043 20.7275 -5.44043 31.9141c0 52.9834 43.0156 96 96 96c52.9834 0 96 -43.0166 96 -96c0 -11.1865 -1.97559 -21.9277 -5.49902 -31.9141h-90.5303c17.6611 0 32 14.3389 32 32s-14.3389 32 -32 32s-32 -14.3389 -32 -32
s14.3389 -32 32 -32h-90.5303z" />
  </font>
</defs>
</svg>
