<?xml version="1.0" standalone="no"?>
<!DOCTYPE svg PUBLIC "-//W3C//DTD SVG 1.1//EN" "http://www.w3.org/Graphics/SVG/1.1/DTD/svg11.dtd" >
<svg xmlns="http://www.w3.org/2000/svg" xmlns:xlink="http://www.w3.org/1999/xlink" version="1.1">
<metadata>
Created by FontForge 20200314 at Mon Oct  5 09:52:14 2020
 By Robert Madole
Copyright (c) Font Awesome
</metadata>
<!-- Font Awesome Pro 5.15.1 by @fontawesome - https://fontawesome.com License - https://fontawesome.com/license (Commercial License) --><defs>
<font id="FontAwesome5Pro-Light" horiz-adv-x="640" >
  <font-face 
    font-family="Font Awesome 5 Pro Light"
    font-weight="300"
    font-stretch="normal"
    units-per-em="512"
    panose-1="2 0 3 3 0 0 0 0 0 0"
    ascent="448"
    descent="-64"
    bbox="-0.0251465 -64.0098 640.006 448.017"
    underline-thickness="25"
    underline-position="-50"
    unicode-range="U+0020-F8FF"
  />
    <missing-glyph />
    <glyph glyph-name="search-minus" unicode="&#xf010;" horiz-adv-x="512" 
d="M307.8 224.2h-200c-6.59961 0 -12 5.39941 -12 12v8c0 6.59961 5.40039 12 12 12h200c6.60059 0 12 -5.40039 12 -12v-8c0 -6.60059 -5.39941 -12 -12 -12zM508.3 -49l-11.2998 -11.2998c-4.7002 -4.7002 -12.2998 -4.7002 -17 0l-129 129
c-2.2998 2.2998 -3.5 5.2998 -3.5 8.5v8.5c-36.9004 -33.4004 -85.7998 -53.7002 -139.5 -53.7002c-114.2 0 -206.5 91.0996 -208 205.3c-1.5 117 93.7002 212.2 210.7 210.7c114.2 -1.5 205.3 -93.7998 205.3 -208c0 -53.7002 -20.2998 -102.6 -53.7002 -139.5h8.5
c3.2002 0 6.2002 -1.2998 8.5 -3.5l129 -129c4.7002 -4.7002 4.7002 -12.2998 0 -17zM384 240c0 97.2998 -78.7002 176 -176 176s-176 -78.7002 -176 -176s78.7002 -176 176 -176s176 78.7002 176 176z" />
    <glyph glyph-name="plus" unicode="&#xf067;" horiz-adv-x="384" 
d="M376 216c4.41992 0 8 -3.58008 8 -8v-32c0 -4.41992 -3.58008 -8 -8 -8h-160v-160c0 -4.41992 -3.58008 -8 -8 -8h-32c-4.41992 0 -8 3.58008 -8 8v160h-160c-4.41992 0 -8 3.58008 -8 8v32c0 4.41992 3.58008 8 8 8h160v160c0 4.41992 3.58008 8 8 8h32
c4.41992 0 8 -3.58008 8 -8v-160h160z" />
    <glyph glyph-name="plane" unicode="&#xf072;" horiz-adv-x="576" 
d="M480 256c35.3496 0 96 -28.6504 96 -64s-60.6504 -64 -96 -64h-114.29l-105.11 -183.94c-2.84961 -4.97949 -8.14941 -8.05957 -13.8896 -8.05957h-88.3604c-10.6299 0 -18.2998 10.1797 -15.3799 20.4004l49.0303 171.6h-64l-43.2002 -57.5996
c-3.01953 -4.03027 -7.75977 -6.40039 -12.7998 -6.40039h-55.9902c-10.4102 0 -18.0498 9.78027 -15.5195 19.8799l31.5098 108.12l-31.5098 108.12c-2.53027 10.0996 5.10938 19.8799 15.5195 19.8799h55.9902c5.03027 0 9.78027 -2.37012 12.7998 -6.40039
l43.2002 -57.5996h64l-49.0303 171.61c-2.91992 10.2197 4.75 20.3896 15.3799 20.3896h88.3604c5.95117 0 11.1396 -3.23633 13.9004 -8.05957l105.1 -183.94h114.29zM480 160c26.2402 0 62.6104 21.75 64 32.0898c-1.38965 10.1602 -37.7598 31.9102 -64 31.9102h-132.85
l-109.71 192h-57.8701l54.8496 -192h-122.42l-48 64h-26.6699l28 -96l-27.9805 -96h26.6504l48 64h122.43l-54.8594 -192h57.8594l109.71 192h132.86z" />
    <glyph glyph-name="wrench" unicode="&#xf0ad;" horiz-adv-x="512" 
d="M507.42 333.51c12.9404 -51.9297 -1.92969 -105.51 -39.7402 -143.319c-38.0898 -38.1006 -92.8594 -52.5508 -144.89 -38.8203l-193.14 -193.11c-14.3408 -14.3496 -33.4004 -22.2598 -53.71 -22.2598c-20.3105 0 -39.4004 7.91016 -53.75 22.2598
c-29.5908 29.6201 -29.5908 77.8203 0 107.45l193.329 193.29c-13.5898 52.1797 0.780273 106.83 38.6201 144.7c37.8105 37.7598 91.46 52.6094 143.19 39.7803c9.55957 -2.37012 17.1299 -9.73047 19.75 -19.2002c2.62012 -9.4502 -0.0605469 -19.6201 -7 -26.54
l-63.8701 -63.8701l7.37988 -44.2402l44.25 -7.36035l63.8701 63.8701c7 6.98047 17.1797 9.59082 26.6504 6.98047c9.39941 -2.62988 16.7197 -10.1396 19.0596 -19.6104zM445.06 212.81c27.7402 27.75 39.8008 66.29 33.0801 104.54l-69.2998 -69.3496l-83.0596 13.8203
l-13.8105 83.0195l69.3105 69.3506c-6.91016 1.21973 -13.8506 1.80957 -20.7207 1.80957c-31.1191 0 -61.0791 -12.2002 -83.79 -34.9199c-31.5898 -31.6104 -42.3398 -78.2197 -28.0293 -121.67l3.08984 -9.33984l-207.01 -206.98
c-17.1201 -17.1494 -17.1201 -45.0703 0 -62.21c16.6201 -16.6201 45.5898 -16.6201 62.21 0l206.88 206.84l9.37988 -3.13965c43.3398 -14.4004 89.9004 -3.58008 121.77 28.2295zM80 32c8.83984 0 16 -7.16016 16 -16s-7.16016 -16 -16 -16s-16 7.16016 -16 16
s7.16016 16 16 16z" />
    <glyph glyph-name="money-bill" unicode="&#xf0d6;" 
d="M320 304c53 0 96 -50.0996 96 -112s-43 -112 -96 -112s-96 50.2002 -96 112c0 61.9004 43 112 96 112zM320 112c35.2998 0 64 35.9004 64 80s-28.7002 80 -64 80s-64 -35.9004 -64 -80s28.7002 -80 64 -80zM608 384c17.7002 0 32 -14.2998 32 -32v-320
c0 -17.7002 -14.2998 -32 -32 -32h-576c-17.7002 0 -32 14.2998 -32 32v320c0 17.7002 14.2998 32 32 32h576zM32 352v-64c35.2998 0 64 28.7002 64 64h-64zM32 32h64c0 35.2998 -28.7002 64 -64 64v-64zM608 32v64c-35.2998 0 -64 -28.7002 -64 -64h64zM608 128v128
c-52.9004 0 -96 43.0996 -96 96h-384c0 -52.9004 -43.0996 -96 -96 -96v-128c52.9004 0 96 -43.0996 96 -96h384c0 52.9004 43.0996 96 96 96zM608 288v64h-64c0 -35.2998 28.7002 -64 64 -64z" />
    <glyph glyph-name="sitemap" unicode="&#xf0e8;" 
d="M608 96c17.6699 0 32 -14.3301 32 -32v-96c0 -17.6699 -14.3301 -32 -32 -32h-96c-17.6699 0 -32 14.3301 -32 32v96c0 17.6699 14.3301 32 32 32h32v96h-208v-96h32c17.6699 0 32 -14.3301 32 -32v-96c0 -17.6699 -14.3301 -32 -32 -32h-96
c-17.6699 0 -32 14.3301 -32 32v96c0 17.6699 14.3301 32 32 32h32v96h-208v-96h32c17.6699 0 32 -14.3301 32 -32v-96c0 -17.6699 -14.3301 -32 -32 -32h-96c-17.6699 0 -32 14.3301 -32 32v96c0 17.6699 14.3301 32 32 32h32v97.5898
c0 16.7705 13.6201 30.4102 30.4102 30.4102h209.59v64h-48c-17.6699 0 -32 14.3301 -32 32v96c0 17.6699 14.3301 32 32 32h128c17.6699 0 32 -14.3301 32 -32v-96c0 -17.6699 -14.3301 -32 -32 -32h-48v-64h209.59c16.79 0 30.4102 -13.6396 30.4102 -30.4102v-97.5898h32
zM128 64h-96v-96h96v96zM368 64h-96v-96h96v96zM256 320h128v96h-128v-96zM608 -32v96h-96v-96h96z" />
    <glyph glyph-name="microphone" unicode="&#xf130;" horiz-adv-x="320" 
d="M160 96c-53.0195 0 -96 42.9805 -96 96v160c0 53.0195 42.9805 96 96 96s96 -42.9805 96 -96v-160c0 -53.0195 -42.9805 -96 -96 -96zM96 352v-160c0 -35.29 28.71 -64 64 -64s64 28.71 64 64v160c0 35.29 -28.71 64 -64 64s-64 -28.71 -64 -64zM312 256
c4.41992 0 8 -3.58008 8 -8v-56c0 -82.7998 -63.29 -150.9 -144 -158.99v-65.0098h72c4.41992 0 8 -3.58008 8 -8v-16c0 -4.41992 -3.58008 -8 -8 -8h-176c-4.41992 0 -8 3.58008 -8 8v16c0 4.41992 3.58008 8 8 8h72v65.2305c-82.3496 8.30957 -144 81.0391 -144 164.43
v50.3398c0 4.41992 3.58008 8 8 8h16c4.41992 0 8 -3.58008 8 -8v-51.4902c0 -68.1201 51.2998 -127.689 119.27 -132.22c74.5303 -4.96973 136.73 54.25 136.73 127.71v56c0 4.41992 3.58008 8 8 8h16z" />
    <glyph glyph-name="microphone-slash" unicode="&#xf131;" 
d="M256 352v-48.5l-32 25.2002v23.2998c0 53 43 96 96 96s96 -43 96 -96v-160c0 -4.59961 -0.700195 -9 -1.2998 -13.4004l-30.7002 24.1006v149.3c0 35.2998 -28.7002 64 -64 64s-64 -28.7002 -64 -64zM480 192c0 -20 -3.7998 -39 -10.5996 -56.5996l-27 21.2998
c3.2998 11.2998 5.59961 23 5.59961 35.2998v56c0 4.40039 3.59961 8 8 8h16c4.40039 0 8 -3.59961 8 -8v-56zM408 -32c4.40039 0 8 -3.59961 8 -8v-16c0 -4.40039 -3.59961 -8 -8 -8h-176c-4.40039 0 -8 3.59961 -8 8v16c0 4.40039 3.59961 8 8 8h72v65.4004
c-82.2998 8.2998 -144 81 -144 164.399v50.2998c0 2.60059 1.5 4.60059 3.5 6.10059l28.5 -22.5v-35.2002c0 -68.0996 51.2998 -127.7 119.3 -132.2c26.2998 -1.7998 50.9004 4.7998 71.9004 16.7998l26.3994 -20.7998c-21.5 -14.5996 -46.3994 -24.5996 -73.5996 -27.2998
v-65h72zM320 96c-53 0 -96 43 -96 96v14.5l33.2002 -26c5.5 -29.7998 31.5 -52.4004 62.7998 -52.4004c1.2002 0 2.2002 0.200195 3.2998 0.300781l32.2002 -25.4004c-11 -4.40039 -22.9004 -7 -35.5 -7zM637 -37.2002c3.5 -2.7998 4 -7.7998 1.2002 -11.2998l-10 -12.5
c-2.7002 -3.40039 -7.7998 -4 -11.2002 -1.2002l-614 483.5c-3.40039 2.7002 -4 7.7002 -1.2002 11.2002l10 12.5c2.7002 3.5 7.7998 4 11.2002 1.2002z" />
    <glyph glyph-name="balance-scale" unicode="&#xf24e;" 
d="M634.4 168.91c3.86914 -5.78027 6.08984 -12.7197 5.50977 -19.6406c-5.46973 -65.6699 -60.6504 -117.27 -127.91 -117.27s-122.44 51.5996 -127.91 117.27c-0.580078 6.9209 1.64062 13.8604 5.50977 19.6406l109.051 175.97
c3.16992 4.74023 8.25977 7.12012 13.3496 7.12012s10.1797 -2.37988 13.3496 -7.12012zM512 64c41.2803 0 77 26.7695 90.4199 64h-181.2c13.2305 -36.8701 49.2002 -64 90.7803 -64zM421.73 160h181.25l-90.9404 145.76zM536 -32c4.41992 0 8 -3.58008 8 -8v-16
c0 -4.41992 -3.58008 -8 -8 -8h-432c-4.41992 0 -8 3.58008 -8 8v16c0 4.41992 3.58008 8 8 8h200v354.26c-27.5596 7.14062 -48 31.9502 -48 61.7402h-152c-4.41992 0 -8 3.58008 -8 8v16c0 4.41992 3.58008 8 8 8h161.11
c0.149414 0.259766 4.37012 11.1104 19.1094 21.0703c10.21 6.89941 22.5303 10.9297 35.7803 10.9297s25.5703 -4.03027 35.7803 -10.9297c14.7393 -9.95996 18.96 -20.8105 19.1094 -21.0703h161.11c4.41992 0 8 -3.58008 8 -8v-16c0 -4.41992 -3.58008 -8 -8 -8h-152
c0 -29.79 -20.4404 -54.5996 -48 -61.7402v-354.26h200zM288 384c0 -17.6699 14.3301 -32 32 -32s32 14.3301 32 32s-14.3301 32 -32 32s-32 -14.3301 -32 -32zM255.91 149.27c-5.46973 -65.6699 -60.6504 -117.27 -127.91 -117.27s-122.44 51.5996 -127.91 117.27
c-0.580078 6.9209 1.64062 13.8604 5.50977 19.6406l109.051 175.97c3.16992 4.74023 8.25977 7.12012 13.3496 7.12012s10.1797 -2.37988 13.3496 -7.12012l109.051 -175.97c3.86914 -5.78027 6.08984 -12.7197 5.50977 -19.6406zM128.04 305.76l-90.3096 -145.76h181.25z
M37.2197 128c13.2305 -36.8701 49.2002 -64 90.7803 -64c41.2803 0 77 26.7695 90.4199 64h-181.2z" />
    <glyph glyph-name="microphone-alt" unicode="&#xf3c9;" horiz-adv-x="320" 
d="M160 96c-53.0195 0 -96 42.9805 -96 96v160c0 53.0195 42.9805 96 96 96s96 -42.9805 96 -96v-160c0 -53.0195 -42.9805 -96 -96 -96zM96 352v-160c0 -35.29 28.71 -64 64 -64s64 28.71 64 64h-56c-4.41992 0 -8 3.58008 -8 8v16c0 4.41992 3.58008 8 8 8h56v32h-56
c-4.41992 0 -8 3.58008 -8 8v16c0 4.41992 3.58008 8 8 8h56v32h-56c-4.41992 0 -8 3.58008 -8 8v16c0 4.41992 3.58008 8 8 8h56c0 35.29 -28.71 64 -64 64s-64 -28.71 -64 -64zM312 256c4.41992 0 8 -3.58008 8 -8v-56c0 -82.7998 -63.29 -150.9 -144 -158.99v-65.0098h72
c4.41992 0 8 -3.58008 8 -8v-16c0 -4.41992 -3.58008 -8 -8 -8h-176c-4.41992 0 -8 3.58008 -8 8v16c0 4.41992 3.58008 8 8 8h72v65.2305c-82.3604 8.30957 -144 81.0391 -144 164.43v50.3398c0 4.41992 3.58008 8 8 8h16c4.41992 0 8 -3.58008 8 -8v-51.4902
c0 -68.1201 51.2998 -127.689 119.27 -132.22c74.5303 -4.96973 136.73 54.25 136.73 127.71v56c0 4.41992 3.58008 8 8 8h16z" />
    <glyph glyph-name="money-bill-alt" unicode="&#xf3d1;" 
d="M608 384c17.7002 0 32 -14.2998 32 -32v-320c0 -17.7002 -14.2998 -32 -32 -32h-576c-17.7002 0 -32 14.2998 -32 32v320c0 17.7002 14.2998 32 32 32h576zM32 352v-64c35.2998 0 64 28.7002 64 64h-64zM32 32h64c0 35.2998 -28.7002 64 -64 64v-64zM608 32v64
c-35.2998 0 -64 -28.7002 -64 -64h64zM608 128v128c-52.9004 0 -96 43.0996 -96 96h-384c0 -52.9004 -43.0996 -96 -96 -96v-128c52.9004 0 96 -43.0996 96 -96h384c0 52.9004 43.0996 96 96 96zM608 288v64h-64c0 -35.2998 28.7002 -64 64 -64zM320 320
c61.9004 0 112 -57.2998 112 -128s-50.2002 -128 -112 -128c-61.9004 0 -112 57.2998 -112 128s50.0996 128 112 128zM320 96c44.0996 0 80 43.0996 80 96s-35.9004 96 -80 96s-80 -43.0996 -80 -96s35.9004 -96 80 -96zM352 159.9c4.40039 0.0996094 8 -3.5 8 -7.90039v-16
c0 -4.40039 -3.59961 -8 -8 -8h-64c-4.40039 0 -8 3.59961 -8 8v16c0 4.40039 3.59961 8 8 8h16v55.4004l-0.5 -0.300781c-3.7002 -2.39941 -8.59961 -1.5 -11.0996 2.2002l-8.90039 13.2998c-2.40039 3.7002 -1.5 8.60059 2.2002 11.1006l15.2998 10.2002
c3.90039 2.59961 8.59961 4 13.2998 4h13.7002c4.40039 0 8 -3.60059 8 -8v-88h16z" />
    <glyph glyph-name="blender" unicode="&#xf517;" horiz-adv-x="512" 
d="M288 48c13.2598 0 24 -10.7402 24 -24c0 -13.25 -10.7402 -24 -24 -24s-24 10.75 -24 24c0 13.2598 10.7402 24 24 24zM422.25 103.97c33.96 -14.79 57.75 -48.5693 57.75 -87.9697v-48c0 -17.6699 -14.3301 -32 -32 -32h-320c-17.6699 0 -32 14.3301 -32 32v48
c0 40.9297 25.7197 75.6201 61.79 89.4404l-7.53027 86.5596h-102.26c-26.4697 0 -48 21.5303 -48 48v160c0 26.4697 21.5303 48 48 48h464zM48 224h99.4805l-16.7002 192h-82.7803c-8.80957 0 -16 -7.16992 -16 -16v-160c0 -8.83008 7.19043 -16 16 -16zM470.58 416
h-307.68l26.4395 -304h201.93l29.2207 112h-124.49c-4.41992 0 -8 3.58008 -8 8v16c0 4.41992 3.58008 8 8 8h132.84l16.7002 64h-149.54c-4.41992 0 -8 3.58008 -8 8v16c0 4.41992 3.58008 8 8 8h157.88zM448 -32v48c0 35.29 -28.71 64 -64 64h-192
c-35.29 0 -64 -28.71 -64 -64v-48h320z" />
    <glyph glyph-name="broadcast-tower" unicode="&#xf519;" horiz-adv-x="576" 
d="M40.5498 448c11.71 0 19.2002 -12.0801 14.3506 -22.7197c-14.6406 -32.1299 -22.9004 -67.7305 -22.9004 -105.28s8.25977 -73.1504 22.8896 -105.28c4.86035 -10.6396 -2.63965 -22.7197 -14.3398 -22.7197c-6.18945 0 -11.96 3.53027 -14.54 9.16992
c-16.5596 36.2598 -26.0098 76.4297 -26.0098 118.83c0 42.4102 9.4502 82.5703 26.0098 118.83c2.57031 5.63965 8.33984 9.16992 14.54 9.16992zM326.44 269.16l137.21 -315.59c0.423828 -0.975586 0.667969 -2.05469 0.667969 -3.18555
c0 -3.28613 -1.9834 -6.1123 -4.81836 -7.34473l-14.7002 -6.37988c-4.0498 -1.75977 -8.75977 0.0996094 -10.5195 4.14941l-67.4707 155.19h-157.3l-67.4795 -155.19c-1.76074 -4.0498 -6.4707 -5.90918 -10.5205 -4.14941l-14.7002 6.37988
c-4.0498 1.75977 -5.90918 6.47949 -4.14941 10.5303l137.13 315.399c-15.5596 11.6807 -25.79 30.1104 -25.79 51.0303c0 35.2998 28.7197 64 64 64s64 -28.7002 64 -64c0 -20.8096 -10.1299 -39.1396 -25.5596 -50.8398zM288 352c-17.6699 0 -32 -14.3301 -32 -32
s14.3301 -32 32 -32s32 14.3301 32 32s-14.3301 32 -32 32zM223.42 128h129.48l-56.04 128.9c-2.91992 -0.410156 -5.83008 -0.900391 -8.86035 -0.900391c-2.92969 0 -5.73047 0.490234 -8.5498 0.870117zM118.99 256h-0.150391
c-6.92969 0 -13.2695 4.41016 -15.21 11.0703c-4.89941 16.8193 -7.62988 34.5498 -7.62988 52.9297s2.73047 36.1104 7.62988 52.9297c1.92969 6.65039 8.28027 11.0703 15.21 11.0703h0.150391c10.7002 0 18.0996 -10.2402 15.1494 -20.5303
c-3.96973 -13.8193 -6.13965 -28.3799 -6.13965 -43.4697s2.16992 -29.6504 6.13965 -43.4697c2.9502 -10.29 -4.44922 -20.5303 -15.1494 -20.5303zM457.16 384c6.92969 0 13.2803 -4.41992 15.2197 -11.0703c4.88965 -16.8193 7.62012 -34.54 7.62012 -52.9297
s-2.73047 -36.1104 -7.62012 -52.9297c-1.93945 -6.65039 -8.28027 -11.0703 -15.2197 -11.0703h-0.150391c-10.7002 0 -18.0996 10.2402 -15.1494 20.5303c3.96973 13.8193 6.13965 28.3799 6.13965 43.4697s-2.16992 29.6504 -6.13965 43.4697
c-2.9502 10.29 4.44922 20.5303 15.1494 20.5303h0.150391zM549.99 438.83c16.5693 -36.2598 26.0098 -76.4199 26.0098 -118.83c0 -42.4004 -9.44043 -82.5703 -26.0195 -118.83c-2.57031 -5.63965 -8.34082 -9.16992 -14.54 -9.16992
c-11.7002 0 -19.1904 12.0703 -14.3408 22.7197c14.6406 32.1299 22.9004 67.7305 22.9004 105.28s-8.25977 73.1504 -22.8896 105.28c-4.85059 10.6396 2.63965 22.7197 14.3398 22.7197c6.2002 0 11.96 -3.53027 14.54 -9.16992z" />
    <glyph glyph-name="broom" unicode="&#xf51a;" 
d="M638.26 432.47c1.08691 -1.36426 1.74609 -3.09473 1.74609 -4.97266c0 -2.53418 -1.18262 -4.79395 -3.02539 -6.25684l-244.141 -192.931l45.1699 -56.75c4.99023 -6.2793 2.54004 -15.5996 -4.89941 -18.5996l-77.4707 -31.2695
c-6.66992 -27.5605 -29.0596 -103.301 -79.9893 -143.78c-60.54 -48.1201 -260.271 -41.9697 -275.65 -41.2998c0 0 38.7803 209.33 101.66 259.31c50.8096 40.4004 129.479 45.0498 158.01 45.3701l48.6201 68.5898c4.62012 6.50977 14.2002 6.78027 19.1797 0.530273
l45.4404 -57.0801l244.149 192.93c3.45996 2.75 8.49023 2.16992 11.2402 -1.2793zM255.73 2.37988c40.3594 32.0801 60.3398 94.2305 67.5293 121.771l-67.7695 85.1299c-44.21 -1.14062 -100.3 -11.6699 -133.9 -38.3799
c-17.8096 -14.1504 -35.1396 -49.8203 -50.1494 -91.46l45.9795 9.70996c6.19043 1.30957 9.92969 -6.63086 4.96973 -10.5703l-68.79 -54.6797c-5.43945 -19.1006 -10.3398 -38.1699 -14.3994 -55.9199h0.599609c106.49 0 189.23 13.1797 215.931 34.3994zM342.83 151.25
l46.1699 18.0303c3.75977 1.47949 5.03027 6.16992 2.50977 9.33008l-67.6094 84.9297c-2.5 3.13965 -7.31055 2.99023 -9.61035 -0.290039l-28.4004 -40.4697z" />
    <glyph glyph-name="chalkboard" unicode="&#xf51b;" 
d="M632 0c4.41992 0 8 -3.58008 8 -8v-16c0 -4.41992 -3.58008 -8 -8 -8h-624c-4.41992 0 -8 3.58008 -8 8v16c0 4.41992 3.58008 8 8 8h24v384c0 17.6699 14.3301 32 32 32h512c17.6699 0 32 -14.3301 32 -32v-384h24zM288 0h192v64h-192v-64zM512 0h64v384h-512v-384h192
v64c0 17.6699 14.3301 32 32 32h192c17.6699 0 32 -14.3301 32 -32v-64z" />
    <glyph glyph-name="chalkboard-teacher" unicode="&#xf51c;" 
d="M608 448c17.6699 0 32 -14.3301 32 -32v-352c0 -17.6699 -14.3301 -32 -32 -32h-290.04c1.2002 -6.07031 2.04004 -12.2598 2.04004 -18.6699v-37.3301c0 -22.0898 -17.9102 -40 -40 -40h-240c-22.0898 0 -40 17.9102 -40 40v37.3301
c0 19.8301 6.00977 38.25 16.3096 53.54c17.25 25.6299 46.6709 39.1104 76.9004 39.1104c27.8398 0 34.8203 -9.98047 66.79 -9.98047c32.0195 0 39 9.98047 66.79 9.99023c30.2295 0 59.6504 -13.4902 76.9004 -39.1104
c0.619141 -0.919922 1.05957 -1.93945 1.64941 -2.87988h46.6602v64c0 17.6699 14.3301 32 32 32h128c17.6699 0 32 -14.3301 32 -32v-64h64v352h-416v-101.88c37.2002 -13.2197 64 -48.3799 64 -90.1201c0 -53.0195 -42.9805 -96 -96 -96s-96 42.9805 -96 96
s42.9805 96 96 96v96c0 17.6699 14.3301 32 32 32h416zM224 224c0 35.29 -28.71 64 -64 64s-64 -28.71 -64 -64s28.71 -64 64 -64s64 28.71 64 64zM288 -24v37.3301c0 12.79 -3.75 25.1299 -10.8496 35.6699c-10.5303 15.6396 -29.3604 24.9805 -50.3604 24.9805
c-21.7803 0 -30 -9.98047 -66.79 -9.98047c-36.7998 0 -44.9902 9.98047 -66.79 9.98047c-21.0098 0 -39.8301 -9.34082 -50.3604 -24.9805c-7.09961 -10.54 -10.8496 -22.8799 -10.8496 -35.6699v-37.3301c0 -4.41016 3.58984 -8 8 -8h240c4.41016 0 8 3.58984 8 8zM512 64
v64h-128v-64h128z" />
    <glyph glyph-name="church" unicode="&#xf51d;" horiz-adv-x="576" 
d="M281.71 127.7c38.1699 3.63965 70.29 -26.2803 70.29 -63.7002v-120c0 -4.41992 -3.58008 -8 -8 -8h-16c-4.41992 0 -8 3.58008 -8 8v120c0 19.4199 -17.3896 34.8496 -37.4102 31.5596c-15.7295 -2.59961 -26.5898 -17.4092 -26.5898 -33.3594v-118.2
c0 -4.41992 -3.58008 -8 -8 -8h-16c-4.41992 0 -8 3.58008 -8 8v117.25c0 33.4297 24.4297 63.2803 57.71 66.4502zM558.57 92.0098c10.4697 -5 17.4297 -17.8994 17.4297 -32.3301v-115.68c0 -4.41992 -3.58008 -8 -8 -8h-16c-4.41992 0 -8 3.58008 -8 8v115.68
c0 1.99023 -0.450195 3.43066 -0.799805 4.20996l-95.2002 45.4004v-165.29c0 -4.41992 -3.58008 -8 -8 -8h-16c-4.41992 0 -8 3.58008 -8 8v229.88l-128 76.7998l-128 -76.7998v-229.88c0 -4.41992 -3.58008 -8 -8 -8h-16c-4.41992 0 -8 3.58008 -8 8v165.29
l-95.2002 -45.4004c-0.349609 -0.790039 -0.799805 -2.22949 -0.799805 -4.20996v-115.68c0 -4.41992 -3.58008 -8 -8 -8h-16c-4.41992 0 -8 3.58008 -8 8v115.68c0 14.4307 6.95996 27.3301 17.4297 32.3301l110.57 52.7207v29.1494
c0 11.6572 6.21387 21.8467 15.54 27.4404l128.46 77.0801v73.5996h-72c-4.41992 0 -8 3.58008 -8 8v16c0 4.41992 3.58008 8 8 8h72v56c0 4.41992 3.58008 8 8 8h16c4.41992 0 8 -3.58008 8 -8v-56h72c4.41992 0 8 -3.58008 8 -8v-16c0 -4.41992 -3.58008 -8 -8 -8h-72
v-73.5996l128.46 -77.0801c9.63965 -5.78027 15.54 -16.2002 15.54 -27.4404v-29.1396z" />
    <glyph glyph-name="coins" unicode="&#xf51e;" horiz-adv-x="512" 
d="M336 416c113.9 0 176 -43 176 -80v-192c0 -41.7002 -70.2998 -75.9004 -160 -79.5996v-16.4004c0 -44.2002 -78.7998 -80 -176 -80s-176 35.7998 -176 80v192c0 44.5996 76.0996 75.7998 160 79.2998v16.7002c0 35.5996 50.5996 56.2002 51.5 56.5996
c31.9004 14.4004 75.9004 23.4004 124.5 23.4004zM320 48v50.0996c-31.7998 -20.5996 -84.4004 -34.0996 -144 -34.0996s-112.2 13.5 -144 34.0996v-50.0996c0 -13.9004 50.5 -48 144 -48s144 34.0996 144 48zM320 144v50.0996
c-31.7998 -20.5996 -84.4004 -34.0996 -144 -34.0996s-112.2 13.5 -144 34.0996v-50.0996c0 -13.9004 50.5 -48 144 -48s144 34.0996 144 48zM176 192c81 0 146.7 21.5 146.7 48s-65.7002 48 -146.7 48s-146.7 -21.5 -146.7 -48s65.7002 -48 146.7 -48zM480 144v50.0996
c-28.9004 -18.6992 -75.2002 -31.0996 -128 -33.2998v-64.0996c83 3.7002 128 34.2002 128 47.2998zM480 240v50.0996c-29.7002 -19.2998 -77.5 -32.0996 -132.1 -33.7998c2.39941 -5.2998 4.09961 -10.7002 4.09961 -16.2998v-47.2002
c82.9004 3.7998 128 34.1006 128 47.2002zM336 288c81 0 146.8 21.5 146.8 48s-65.7002 48 -146.7 48s-146.699 -21.5 -146.699 -48c0 -6.09961 3.7998 -11.7998 10.0996 -17.0996c30.5996 -1.80078 78.7002 -8.30078 115.6 -30
c6.90039 -0.400391 13.6006 -0.900391 20.9004 -0.900391z" />
    <glyph glyph-name="crow" unicode="&#xf520;" 
d="M416 376c13.25 0 24 -10.7402 24 -24c0 -13.25 -10.75 -24 -24 -24s-24 10.75 -24 24c0 13.2598 10.75 24 24 24zM520 384c66.2695 0 120 -35.8203 120 -80l-128 -17.0703v-30.9297c0 -79.6699 -45.6699 -147.98 -110.71 -177.04l45.9795 -124.36
c2.27051 -6.22949 -0.939453 -13.1094 -7.16992 -15.3799l-6.83008 -2.48926c-6.22949 -2.27051 -13.1094 0.939453 -15.3799 7.16992l-46.25 125.08c-12.9893 -3.16016 -26.46 -4.98047 -40.3496 -4.98047h-20.4697l40.46 -109.4
c2.26953 -6.22949 -0.94043 -13.1094 -7.16992 -15.3799l-6.83008 -2.48926c-6.23047 -2.27051 -13.1104 0.939453 -15.3799 7.16992l-44.4102 120.1h-109.49l-126.84 -60.7695c-4.16992 -2.21094 -8.49023 -3.23047 -12.71 -3.23047
c-14.9199 0 -28.4502 12.7402 -28.4502 30.2598c0 9.50977 4.20996 18.46 11.3799 24.1699l308.62 257.971v39.5996c0 53.0195 42.9805 96 96 96c41.7402 0 76.9004 -26.7998 90.1201 -64h13.8799zM480 256v96c0 35.29 -28.71 64 -64 64s-64 -28.71 -64 -64v-54.5596
l-307.85 -257.32c150.899 72.3398 74.4395 44.7002 266.619 99.6104c39.4707 11.2598 72.6006 38.7598 90.9102 75.4199c4 7.92969 13.5605 11.0498 21.4707 7.15918c7.90918 -3.94922 11.0996 -13.5596 7.15918 -21.4697
c-22.3096 -44.6602 -62.6895 -78.1602 -110.72 -91.8896l-45.3301 -12.9502h57.0303c82 0 148.71 71.7803 148.71 160zM512 319.22l80.46 10.7305c-15.5801 12.5596 -41.6299 22.0498 -72.46 22.0498h-8v-32.7803z" />
    <glyph glyph-name="crown" unicode="&#xf521;" 
d="M536 -32c4.40039 0 8 -3.59961 8 -8v-16c0 -4.40039 -3.59961 -8 -8 -8h-432c-4.40039 0 -8 3.59961 -8 8v16c0 4.40039 3.59961 8 8 8h432zM584 288c30.9004 0 56 -25.0996 56 -56s-25.0996 -56 -56 -56c-2 0 -3.90039 0.400391 -5.7998 0.599609l-66.2002 -176.6h-384
l-66.2002 176.6c-1.89941 -0.199219 -3.7998 -0.599609 -5.7998 -0.599609c-30.9004 0 -56 25.0996 -56 56s25.0996 56.0996 56 56.0996s56 -25.0996 56 -56c0 -7.59961 -1.59961 -14.7998 -4.2998 -21.3994l56.2998 -33.7998
c5.09961 -3.10059 10.7998 -4.60059 16.4004 -4.60059c11.0996 0 21.8994 5.7002 27.7998 16.1006l74.3994 130.199c-11.2998 10.2002 -18.5996 24.9004 -18.5996 41.4004c0 30.9004 25.0996 56 56 56s56 -25.0996 56 -56c0 -16.5 -7.2998 -31.2002 -18.5996 -41.5
l74.3994 -130.2c5.90039 -10.2998 16.7002 -16.0996 27.7998 -16.0996c5.60059 0 11.2002 1.5 16.4004 4.59961l56.2998 33.7998c-2.7998 6.60059 -4.2998 13.8008 -4.2998 21.4004c0 30.9004 25.0996 56 56 56zM320 384c-13.2002 0 -24 -10.7998 -24 -24
s10.7998 -24 24 -24s24 10.7998 24 24s-10.7998 24 -24 24zM56 208c13.2002 0 24 10.7998 24 24s-10.7998 24 -24 24s-24 -10.7998 -24 -24s10.7998 -24 24 -24zM489.8 32l56.1006 149.4l-53.4004 -32c-10 -5.90039 -21.2998 -9.10059 -32.9004 -9.10059
c-22.8994 0 -44.1992 12.2998 -55.5996 32.2002l-75.5 132.4c-2.7998 -0.400391 -5.5 -0.800781 -8.40039 -0.800781c-2.89941 0 -5.59961 0.400391 -8.39941 0.800781l-75.6006 -132.301c-11.3994 -19.8994 -32.6992 -32.2998 -55.5996 -32.2998
c-11.5996 0 -22.9004 3.10059 -32.9004 9.10059l-53.3994 32l56 -149.4h339.6zM584 208c13.2002 0 24 10.7998 24 24s-10.7998 24 -24 24s-24 -10.7998 -24 -24s10.7998 -24 24 -24z" />
    <glyph glyph-name="dice" unicode="&#xf522;" 
d="M480 120c13.25 0 24 -10.7402 24 -24c0 -13.25 -10.75 -24 -24 -24s-24 10.75 -24 24c0 13.2598 10.75 24 24 24zM224 248c13.25 0 24 -10.7402 24 -24c0 -13.25 -10.75 -24 -24 -24s-24 10.75 -24 24c0 13.2598 10.75 24 24 24zM320 248c13.25 0 24 -10.7402 24 -24
c0 -13.25 -10.75 -24 -24 -24s-24 10.75 -24 24c0 13.2598 10.75 24 24 24zM128 248c13.25 0 24 -10.7402 24 -24c0 -13.25 -10.75 -24 -24 -24s-24 10.75 -24 24c0 13.2598 10.75 24 24 24zM224 152c13.25 0 24 -10.7402 24 -24c0 -13.25 -10.75 -24 -24 -24
s-24 10.75 -24 24c0 13.2598 10.75 24 24 24zM224 344c13.25 0 24 -10.7402 24 -24c0 -13.25 -10.75 -24 -24 -24s-24 10.75 -24 24c0 13.2598 10.75 24 24 24zM576 256c35.3496 0 64 -28.6504 64 -64v-192c0 -35.3496 -28.6504 -64 -64 -64h-192
c-35.3496 0 -64 28.6504 -64 64v68.7402l-49.46 -49.46c-12.8496 -12.8506 -29.7002 -19.2803 -46.54 -19.2803s-33.6904 6.42969 -46.54 19.2803l-158.18 158.18c-25.7002 25.7002 -25.7002 67.3799 0 93.0801l158.18 158.18
c12.8496 12.8604 29.7002 19.2803 46.54 19.2803s33.6904 -6.41992 46.54 -19.2803l158.19 -158.18c4.38965 -4.38965 7.75977 -9.37012 10.6494 -14.54h136.62zM247.27 42.5498l158.181 158.181c6.21973 6.21973 9.63965 14.4795 9.63965 23.2695
s-3.41992 17.0596 -9.63965 23.2695l-158.181 158.181c-6.21973 6.21973 -14.4795 9.63965 -23.2695 9.63965s-17.0596 -3.42969 -23.2695 -9.63965l-158.181 -158.181c-6.21973 -6.21973 -9.63965 -14.4795 -9.63965 -23.2695s3.42969 -17.0498 9.63965 -23.2695
l158.181 -158.181c6.21973 -6.21973 14.4795 -9.63965 23.2695 -9.63965s17.0596 3.42969 23.2695 9.63965zM608 0v192c0 17.6396 -14.3604 32 -32 32h-128c0 -16.8398 -6.42969 -33.6904 -19.2803 -46.54l-76.7197 -76.7197v-100.74c0 -17.6396 14.3604 -32 32 -32h192
c17.6396 0 32 14.3604 32 32z" />
    <glyph glyph-name="dice-five" unicode="&#xf523;" horiz-adv-x="448" 
d="M384 416c35.3496 0 64 -28.6504 64 -64v-320c0 -35.3496 -28.6504 -64 -64 -64h-320c-35.3496 0 -64 28.6504 -64 64v320c0 35.3496 28.6504 64 64 64h320zM416 32v320c0 17.6396 -14.3604 32 -32 32h-320c-17.6396 0 -32 -14.3604 -32 -32v-320
c0 -17.6396 14.3604 -32 32 -32h320c17.6396 0 32 14.3604 32 32zM128 312c13.25 0 24 -10.7402 24 -24c0 -13.25 -10.75 -24 -24 -24s-24 10.75 -24 24c0 13.2598 10.75 24 24 24zM224 216c13.25 0 24 -10.7402 24 -24c0 -13.25 -10.75 -24 -24 -24s-24 10.75 -24 24
c0 13.2598 10.75 24 24 24zM128 120c13.25 0 24 -10.7402 24 -24c0 -13.25 -10.75 -24 -24 -24s-24 10.75 -24 24c0 13.2598 10.75 24 24 24zM320 312c13.25 0 24 -10.7402 24 -24c0 -13.25 -10.75 -24 -24 -24s-24 10.75 -24 24c0 13.2598 10.75 24 24 24zM320 120
c13.25 0 24 -10.7402 24 -24c0 -13.25 -10.75 -24 -24 -24s-24 10.75 -24 24c0 13.2598 10.75 24 24 24z" />
    <glyph glyph-name="dice-four" unicode="&#xf524;" horiz-adv-x="448" 
d="M384 416c35.3496 0 64 -28.6504 64 -64v-320c0 -35.3496 -28.6504 -64 -64 -64h-320c-35.3496 0 -64 28.6504 -64 64v320c0 35.3496 28.6504 64 64 64h320zM416 32v320c0 17.6396 -14.3604 32 -32 32h-320c-17.6396 0 -32 -14.3604 -32 -32v-320
c0 -17.6396 14.3604 -32 32 -32h320c17.6396 0 32 14.3604 32 32zM128 312c13.25 0 24 -10.7402 24 -24c0 -13.25 -10.75 -24 -24 -24s-24 10.75 -24 24c0 13.2598 10.75 24 24 24zM128 120c13.25 0 24 -10.7402 24 -24c0 -13.25 -10.75 -24 -24 -24s-24 10.75 -24 24
c0 13.2598 10.75 24 24 24zM320 312c13.25 0 24 -10.7402 24 -24c0 -13.25 -10.75 -24 -24 -24s-24 10.75 -24 24c0 13.2598 10.75 24 24 24zM320 120c13.25 0 24 -10.7402 24 -24c0 -13.25 -10.75 -24 -24 -24s-24 10.75 -24 24c0 13.2598 10.75 24 24 24z" />
    <glyph glyph-name="dice-one" unicode="&#xf525;" horiz-adv-x="448" 
d="M384 416c35.3496 0 64 -28.6504 64 -64v-320c0 -35.3496 -28.6504 -64 -64 -64h-320c-35.3496 0 -64 28.6504 -64 64v320c0 35.3496 28.6504 64 64 64h320zM416 32v320c0 17.6396 -14.3604 32 -32 32h-320c-17.6396 0 -32 -14.3604 -32 -32v-320
c0 -17.6396 14.3604 -32 32 -32h320c17.6396 0 32 14.3604 32 32zM224 216c13.25 0 24 -10.7402 24 -24c0 -13.25 -10.75 -24 -24 -24s-24 10.75 -24 24c0 13.2598 10.75 24 24 24z" />
    <glyph glyph-name="dice-six" unicode="&#xf526;" horiz-adv-x="448" 
d="M384 416c35.3496 0 64 -28.6504 64 -64v-320c0 -35.3496 -28.6504 -64 -64 -64h-320c-35.3496 0 -64 28.6504 -64 64v320c0 35.3496 28.6504 64 64 64h320zM416 32v320c0 17.6396 -14.3604 32 -32 32h-320c-17.6396 0 -32 -14.3604 -32 -32v-320
c0 -17.6396 14.3604 -32 32 -32h320c17.6396 0 32 14.3604 32 32zM128 312c13.25 0 24 -10.7402 24 -24c0 -13.25 -10.75 -24 -24 -24s-24 10.75 -24 24c0 13.2598 10.75 24 24 24zM128 216c13.25 0 24 -10.7402 24 -24c0 -13.25 -10.75 -24 -24 -24s-24 10.75 -24 24
c0 13.2598 10.75 24 24 24zM320 216c13.25 0 24 -10.7402 24 -24c0 -13.25 -10.75 -24 -24 -24s-24 10.75 -24 24c0 13.2598 10.75 24 24 24zM128 120c13.25 0 24 -10.7402 24 -24c0 -13.25 -10.75 -24 -24 -24s-24 10.75 -24 24c0 13.2598 10.75 24 24 24zM320 312
c13.25 0 24 -10.7402 24 -24c0 -13.25 -10.75 -24 -24 -24s-24 10.75 -24 24c0 13.2598 10.75 24 24 24zM320 120c13.25 0 24 -10.7402 24 -24c0 -13.25 -10.75 -24 -24 -24s-24 10.75 -24 24c0 13.2598 10.75 24 24 24z" />
    <glyph glyph-name="dice-three" unicode="&#xf527;" horiz-adv-x="448" 
d="M384 416c35.3496 0 64 -28.6504 64 -64v-320c0 -35.3496 -28.6504 -64 -64 -64h-320c-35.3496 0 -64 28.6504 -64 64v320c0 35.3496 28.6504 64 64 64h320zM416 32v320c0 17.6396 -14.3604 32 -32 32h-320c-17.6396 0 -32 -14.3604 -32 -32v-320
c0 -17.6396 14.3604 -32 32 -32h320c17.6396 0 32 14.3604 32 32zM128 312c13.25 0 24 -10.7402 24 -24c0 -13.25 -10.75 -24 -24 -24s-24 10.75 -24 24c0 13.2598 10.75 24 24 24zM224 216c13.25 0 24 -10.7402 24 -24c0 -13.25 -10.75 -24 -24 -24s-24 10.75 -24 24
c0 13.2598 10.75 24 24 24zM320 120c13.25 0 24 -10.7402 24 -24c0 -13.25 -10.75 -24 -24 -24s-24 10.75 -24 24c0 13.2598 10.75 24 24 24z" />
    <glyph glyph-name="dice-two" unicode="&#xf528;" horiz-adv-x="448" 
d="M384 416c35.3496 0 64 -28.6504 64 -64v-320c0 -35.3496 -28.6504 -64 -64 -64h-320c-35.3496 0 -64 28.6504 -64 64v320c0 35.3496 28.6504 64 64 64h320zM416 32v320c0 17.6396 -14.3604 32 -32 32h-320c-17.6396 0 -32 -14.3604 -32 -32v-320
c0 -17.6396 14.3604 -32 32 -32h320c17.6396 0 32 14.3604 32 32zM128 312c13.25 0 24 -10.7402 24 -24c0 -13.25 -10.75 -24 -24 -24s-24 10.75 -24 24c0 13.2598 10.75 24 24 24zM320 120c13.25 0 24 -10.7402 24 -24c0 -13.25 -10.75 -24 -24 -24s-24 10.75 -24 24
c0 13.2598 10.75 24 24 24z" />
    <glyph glyph-name="divide" unicode="&#xf529;" horiz-adv-x="384" 
d="M376 216c4.41992 0 8 -3.58008 8 -8v-32c0 -4.41992 -3.58008 -8 -8 -8h-368c-4.41992 0 -8 3.58008 -8 8v32c0 4.41992 3.58008 8 8 8h368zM192 112c26.46 0 48 -21.54 48 -48s-21.54 -48 -48 -48s-48 21.54 -48 48s21.54 48 48 48zM192 272c-26.46 0 -48 21.54 -48 48
s21.54 48 48 48s48 -21.54 48 -48s-21.54 -48 -48 -48z" />
    <glyph glyph-name="door-closed" unicode="&#xf52a;" 
d="M400 160c-17.6699 0 -32 14.3301 -32 32s14.3301 32 32 32s32 -14.3301 32 -32s-14.3301 -32 -32 -32zM632 -32c4.41992 0 8 -3.58008 8 -8v-16c0 -4.41992 -3.58008 -8 -8 -8h-624c-4.41992 0 -8 3.58008 -8 8v16c0 4.41992 3.58008 8 8 8h120v448
c0 17.6699 14.3301 32 32 32h320c17.6699 0 32 -14.3301 32 -32v-448h120zM480 -32v448h-320v-448h320z" />
    <glyph glyph-name="door-open" unicode="&#xf52b;" 
d="M288 160c-13.25 0 -24 14.3301 -24 32s10.75 32 24 32s24 -14.3301 24 -32s-10.75 -32 -24 -32zM632 -32c4.41992 0 8 -3.58008 8 -8v-16c0 -4.41992 -3.58008 -8 -8 -8h-624c-4.41992 0 -8 3.58008 -8 8v16c0 4.41992 3.58008 8 8 8h120v397.08
c0 15.2197 9.99023 28.4795 24.2305 32.1699l192 49.7402c2.63965 0.689453 5.25977 1.00977 7.8291 1.00977c17.1406 0 31.9404 -14.4199 31.9404 -33.1797v-30.8203h96c17.6699 0 32 -14.3301 32 -32v-384h120zM352 414.82l0.0595703 1.13965l-191.8 -49.6904
l-0.259766 -398.27h192v446.82zM480 -32v384h-96v-384h96z" />
    <glyph glyph-name="equals" unicode="&#xf52c;" horiz-adv-x="384" 
d="M376 144c4.41992 0 8 -3.58008 8 -8v-32c0 -4.41992 -3.58008 -8 -8 -8h-368c-4.41992 0 -8 3.58008 -8 8v32c0 4.41992 3.58008 8 8 8h368zM376 288c4.41992 0 8 -3.58008 8 -8v-32c0 -4.41992 -3.58008 -8 -8 -8h-368c-4.41992 0 -8 3.58008 -8 8v32
c0 4.41992 3.58008 8 8 8h368z" />
    <glyph glyph-name="frog" unicode="&#xf52e;" horiz-adv-x="576" 
d="M368 328c13.25 0 24 -10.7402 24 -24c0 -13.25 -10.75 -24 -24 -24s-24 10.75 -24 24c0 13.2598 10.75 24 24 24zM554.67 0c11.7803 0 21.3301 -9.5498 21.3301 -21.3301c0 -5.88965 -4.78027 -10.6699 -10.6699 -10.6699h-92.5205l-120.85 133.98
c-0.319336 -20.667 -6.75684 -40.0088 -17.4902 -56.0605l-34.46 -45.9199h62.6602c11.7803 0 21.3301 -9.5498 21.3301 -21.3301c0 -5.88965 -4.78027 -10.6699 -10.6699 -10.6699h-309.33c-34.9199 0 -63.8896 28.1104 -64 63.0195
c-0.5 166.86 126.75 304.021 289.46 319.44c6.82031 37.25 39.3096 65.54 78.54 65.54c39.1904 0 71.6699 -28.2305 78.5303 -65.4404c0 0 58.4297 -19.0498 98.9893 -41.2695c18.7607 -10.2803 30.4805 -29.8398 30.4805 -51.2305
c0 -21.793 -11.9512 -40.7695 -29.71 -50.7295l-161.98 -91.5996l102.881 -115.73h67.4795zM346.84 134.92l183.79 100.32c8.25 4.62012 13.3701 13.3701 13.3701 22.8193c0 9.61035 -5.30957 18.4902 -13.8604 23.1709c-37.3896 20.4893 -92.9795 38.7393 -93.54 38.9199
l-18.0801 5.89941l-3.45996 18.71c-4.18945 22.7402 -23.9893 39.2402 -47.0596 39.2402c-23.0996 0 -42.9004 -16.5303 -47.0596 -39.2998l-4.36035 -23.8105l-24.0996 -2.29004c-148.95 -14.1191 -260.931 -137.71 -260.48 -287.479
c0.0498047 -17.1602 14.4102 -31.1201 32 -31.1201h196.03l48.3398 64.4004c22.3896 33.6094 12.04 80.9893 -24.96 102.189c-25.5205 14.6201 -57.71 10.9404 -81.2402 -6.70996l-32.5703 -24.4395c-7.06934 -5.26074 -17.0996 -3.89062 -22.4092 3.18945
c-5.28027 7.08008 -3.84082 17.1104 3.21973 22.4102l31.0703 23.3096c38.2393 28.6904 91.8398 31.1904 129.75 2.07031c17.5791 -13.5 29.3994 -31.6895 35.6094 -51.5z" />
    <glyph glyph-name="glasses" unicode="&#xf530;" horiz-adv-x="576" 
d="M574.21 167.42c1.19043 -4.92969 1.79004 -9.97949 1.79004 -15.0498v-73.6504c0 -61.1494 -50.1396 -110.72 -112 -110.72h-36.0801c-58.6104 0 -107.31 44.6602 -111.689 102.44l-4.37012 57.5596h-47.7207l-4.37012 -57.5596
c-4.38965 -57.7705 -53.0791 -102.44 -111.689 -102.44h-36.0801c-61.8604 0 -112 49.5703 -112 110.72v73.6406c0 5.08008 0.599609 10.1299 1.7998 15.0596l45.4502 187.8c5.41016 21.7305 19.6602 40.2305 39.1104 50.9102c19.5 10.7002 42.7197 12.8105 63.8096 5.75
l22.8496 -7.61035c4.19043 -1.39941 6.46094 -5.92969 5.06055 -10.1191l-5.06055 -15.1807c-1.39941 -4.18945 -5.92969 -6.45996 -10.1191 -5.05957l-20.2803 6.76953c-13.1104 4.37012 -27.75 4.29004 -39.9902 -2.13965
c-12.2998 -6.45996 -20.9297 -17.46 -24.29 -30.9004l-40.5703 -171.239c22.3604 7.62988 53.25 15.0693 89.5801 15.0693c37.3408 0.0107422 80.2607 -8 125 -31.4795h71.3105c44.7402 23.4795 87.6602 31.4795 125 31.4795c36.3301 0 67.2197 -7.42969 89.5703 -15.0596
l-40.6104 171.439c-3.94043 15.7207 -15.3604 28.2803 -31.5098 33.8408c-10.0703 3.46973 -21.1299 2.88965 -31.2305 -0.480469l-21.79 -7.26953c-4.18945 -1.40039 -8.71973 0.869141 -10.1201 5.05957l-5.05957 15.1797
c-1.40039 4.19043 0.870117 8.7207 5.05957 10.1201l22.8506 7.62012c21.1494 7.03027 44.3398 4.88965 63.8096 -5.76953c19.4697 -10.6807 33.71 -29.1807 39.0898 -50.7305zM227.86 72.8604l4.66992 61.4893c-33.5205 16.6904 -68.8105 25.1309 -105.16 25.1309
c-42.1602 0 -76.5801 -11.4902 -95.3701 -19.4609v-61.2998c0 -43.4102 35.8896 -78.7197 80 -78.7197h36.0801c41.6396 0 76.6797 32 79.7803 72.8604zM544 78.7197v61.2998c-18.7803 7.9707 -53.1797 19.4609 -95.3398 19.4609
c-36.3604 0 -71.6602 -8.4502 -105.19 -25.1309l4.66992 -61.4893c3.10059 -40.8604 38.1504 -72.8604 79.7803 -72.8604h36.0801c44.1104 0 80 35.3096 80 78.7197z" />
    <glyph glyph-name="greater-than" unicode="&#xf531;" horiz-adv-x="320" 
d="M320 197.83l-0.00976562 -12.9102c-0.00390625 -3.12891 -1.79785 -5.83594 -4.41992 -7.15039l-289.71 -144.92c-3.9502 -1.97949 -8.76074 -0.369141 -10.7305 3.58008l-14.29 28.6201c-1.96973 3.9502 -0.370117 8.75977 3.58008 10.7305l232.45 116.22
l-232.45 116.22c-2.625 1.31445 -4.41602 4.0332 -4.41602 7.16602c0 1.28027 0.300781 2.49121 0.835938 3.56445l14.2998 28.6201c1.9707 3.94922 6.78027 5.55957 10.7305 3.58008l289.729 -146.181c2.7002 -1.35938 4.40039 -4.12012 4.40039 -7.13965z" />
    <glyph glyph-name="greater-than-equal" unicode="&#xf532;" horiz-adv-x="384" 
d="M32.8398 129.05c-0.535156 1.07324 -0.848633 2.28711 -0.848633 3.56738c0 3.13281 1.80371 5.84863 4.42871 7.16309l232.45 116.22l-232.45 116.22c-2.625 1.31445 -4.41602 4.0332 -4.41602 7.16602c0 1.28027 0.300781 2.49121 0.835938 3.56445l14.2998 28.6201
c1.9707 3.94922 6.78027 5.55957 10.7305 3.58008l289.72 -146.181c2.7002 -1.35938 4.40039 -4.12012 4.40039 -7.13965v-12.9102c-0.000976562 -3.12988 -1.79688 -5.83789 -4.41992 -7.15039l-289.71 -144.92c-1.0752 -0.539062 -2.29199 -0.855469 -3.57617 -0.855469
c-3.13281 0 -5.84668 1.80762 -7.1543 4.43555zM376 16c4.41992 0 8 -3.58008 8 -8v-32c0 -4.41992 -3.58008 -8 -8 -8h-368c-4.41992 0 -8 3.58008 -8 8v32c0 4.41992 3.58008 8 8 8h368z" />
    <glyph glyph-name="helicopter" unicode="&#xf533;" 
d="M304 32c-10.4707 0 -19.7627 5.01465 -25.5996 12.7998l-86.4004 115.2l-160 64l-31.5098 108.12c-2.53027 10.0996 5.10938 19.8799 15.5195 19.8799h55.9902c5.03027 0 9.78027 -2.37012 12.7998 -6.40039l43.2002 -57.5996h224v96h-216c-4.41992 0 -8 3.58008 -8 8v16
c0 4.41992 3.58008 8 8 8h432c4.41992 0 8 -3.58008 8 -8v-16c0 -4.41992 -3.58008 -8 -8 -8h-184v-96c123.71 0 224 -100.29 224 -224c0 -17.6699 -14.3301 -32 -32 -32h-272zM416 253.11v-189.11h160c0 94.9502 -69.3398 173.8 -160 189.11zM212.22 186.38
l5.37988 -7.17969l86.4004 -115.2h80v192h-272l-9.59961 12.7998l-38.4004 51.2002h-26.6699l21.0195 -72.0801l145.54 -58.21zM637.66 -21.6504c3.12012 -3.12988 3.12012 -8.18945 -0.00976562 -11.3096l-7.59082 -7.58984
c-15 -15.0098 -35.3594 -23.4404 -56.5791 -23.4404h-341.48c-4.41992 0 -8 3.58008 -8 8v16c0 4.41992 3.58008 8 8 8h341.51c12.7305 0 24.9307 5.0498 33.9307 14.0498l7.59961 7.60059c3.12012 3.12012 8.19043 3.12012 11.3096 0z" />
    <glyph glyph-name="kiwi-bird" unicode="&#xf535;" horiz-adv-x="576" 
d="M463.99 248c13.25 0 24 -10.7402 24 -24c0 -13.25 -10.75 -24 -24 -24s-24 10.75 -24 24c0 13.2598 10.75 24 24 24zM562.6 171.98l13.3604 -186.841c0.530273 -7.5 -4.25 -14.3799 -11.4697 -16.5c-1.5 -0.439453 -3 -0.639648 -4.5 -0.639648
c-5.75 0 -11.1904 3.08984 -14.0303 8.33984l-74.4404 136.44c-2.53906 -0.169922 -4.94922 -0.780273 -7.5293 -0.780273h-15.5098c-54.6006 0 -106.4 -19.25 -152.15 -49.0596c-12.46 -8.12012 -26.1104 -14.4307 -40.3398 -19.5v-67.4404c0 -4.41992 -3.58008 -8 -8 -8
h-16c-4.41992 0 -8 3.58008 -8 8v58.9102c-10.4307 -1.77051 -21.0605 -2.91016 -32 -2.91016c-22.4404 0 -43.9805 3.84961 -64 10.9297v-66.9297c0 -4.41992 -3.58008 -8 -8 -8h-16c-4.41992 0 -8 3.58008 -8 8v81.9697c-68.3604 39.6201 -110.17 120 -91.5605 207.96
c15.0605 71.1807 71.9307 128.99 142.891 145.021c15.1699 3.42969 30.1094 5.0498 44.6699 5.0498c40.3301 0 77.7002 -12.4805 108.55 -33.7598c43.4795 -29.9902 94.9199 -46.2402 147.74 -46.2402h9.37012c60.6494 0 115.01 -45.4102 118.18 -105.98
c1.11035 -21.1191 -4.09961 -40.7793 -13.2305 -58.0391zM504.15 119.84l34.6299 -63.5303l-5.73047 80.0703c-8.71973 -6.87988 -18.3594 -12.4697 -28.8994 -16.54zM522.03 168.94c15.25 16.0693 23.0098 37.1699 21.8398 59.4092
c-2.17969 41.71 -40.8604 75.6504 -86.2197 75.6504h-9.37012c-59.3105 0 -116.681 17.9502 -165.91 51.9004c-26.6602 18.3799 -57.9102 28.0996 -90.3799 28.0996c-12.4307 0 -25.0898 -1.44043 -37.6104 -4.26953c-58.5195 -13.2207 -106.2 -61.6104 -118.64 -120.421
c-10.2998 -48.71 1.31934 -98.2695 31.8799 -135.979c30.5596 -37.7002 75.8994 -59.3301 124.37 -59.3301c30.9795 0 61.0195 8.90039 86.8701 25.75c55.2598 36 112.319 54.25 169.62 54.25h15.5098c22.1699 0 42.7793 8.86035 58.04 24.9404z" />
    <glyph glyph-name="less-than" unicode="&#xf536;" horiz-adv-x="320" 
d="M0 186.17v12.9102c0 0.00195312 -0.0078125 -0.000976562 -0.0078125 0c0 3.12988 1.80371 5.84082 4.42773 7.15039l289.71 144.92c3.9502 1.97949 8.75977 0.369141 10.7305 -3.58008l14.29 -28.6201c1.96973 -3.9502 0.369141 -8.75977 -3.58008 -10.7305
l-232.44 -116.22l232.44 -116.22c3.94922 -1.98047 5.5498 -6.78027 3.58008 -10.7305l-14.29 -28.6201c-1.9707 -3.94922 -6.78027 -5.55957 -10.7305 -3.58008l-289.729 146.181c-2.7002 1.35938 -4.40039 4.12012 -4.40039 7.13965z" />
    <glyph glyph-name="less-than-equal" unicode="&#xf537;" horiz-adv-x="384" 
d="M347.58 139.78c3.9502 -1.98047 5.5498 -6.78027 3.57031 -10.7207l-14.29 -28.6191c-1.9707 -3.95996 -6.78027 -5.56055 -10.7305 -3.58008l-289.71 144.92c-2.70996 1.34961 -4.41992 4.12012 -4.41992 7.14941v12.9102c0 3.12305 1.78711 5.8252 4.40039 7.14062
l289.739 146.17c1.0752 0.539062 2.29199 0.855469 3.57617 0.855469c3.13281 0 5.84668 -1.80762 7.1543 -4.43555l14.29 -28.6201c1.96973 -3.9502 0.370117 -8.75977 -3.58008 -10.7305l-232.45 -116.22zM0 8c0 4.41992 3.58008 8 8 8h368c4.41992 0 8 -3.58008 8 -8v-32
c0 -4.41992 -3.58008 -8 -8 -8h-368c-4.41992 0 -8 3.58008 -8 8v32z" />
    <glyph glyph-name="memory" unicode="&#xf538;" 
d="M496 176h-64v128h96v-128h-32zM464 272v-64h32v64h-32zM336 176h-64v128h96v-128h-32zM304 272v-64h32v64h-32zM176 176h-64v128h96v-128h-32zM144 272v-64h32v64h-32zM632 288c-13.25 0 -24 -10.7402 -24 -24c0 -13.25 10.75 -24 24 -24h8v-240h-640v240h8
c13.2598 0 24 10.75 24 24c0 13.2598 -10.7402 24 -24 24h-8v64c0 17.6699 14.3301 32 32 32h576c17.6699 0 32 -14.3301 32 -32v-64h-8zM608 32v64h-576v-64h80v16c0 8.83984 7.16016 16 16 16s16 -7.16016 16 -16v-16h96v16c0 8.83984 7.16016 16 16 16
s16 -7.16016 16 -16v-16h96v16c0 8.83984 7.16016 16 16 16s16 -7.16016 16 -16v-16h96v16c0 8.83984 7.16016 16 16 16s16 -7.16016 16 -16v-16h80zM608 314.59v37.4102h-576v-37.4102c18.9004 -9 32 -28.2998 32 -50.5898s-13.0996 -41.5898 -32 -50.5898v-85.4102h576
v85.4102c-18.9102 9 -32 28.2998 -32 50.5898s13.0898 41.5898 32 50.5898z" />
    <glyph glyph-name="microphone-alt-slash" unicode="&#xf539;" 
d="M256 352v-48.5l-32 25.2002v23.2998c0 53 43 96 96 96s96 -43 96 -96v-160c0 -4.59961 -0.700195 -9 -1.2998 -13.4004l-57.7002 45.4004h27v32h-56c-4.40039 0 -8 3.59961 -8 8v16c0 4.40039 3.59961 8 8 8h56v32h-56c-4.40039 0 -8 3.59961 -8 8v16
c0 4.40039 3.59961 8 8 8h56c0 35.2998 -28.7002 64 -64 64s-64 -28.7002 -64 -64zM480 192c0 -20 -3.7998 -39 -10.5996 -56.5996l-27 21.2998c3.2998 11.2998 5.59961 23 5.59961 35.2998v56c0 4.40039 3.59961 8 8 8h16c4.40039 0 8 -3.59961 8 -8v-56zM320 96
c-53 0 -96 43 -96 96v14.5l33.2002 -26c5.5 -29.7998 31.5 -52.4004 62.7998 -52.4004c1.2002 0 2.2002 0.200195 3.2998 0.300781l32.2002 -25.4004c-11 -4.40039 -22.9004 -7 -35.5 -7zM637 -37.2002c3.5 -2.7998 4 -7.7998 1.2002 -11.2998l-10 -12.5
c-2.7002 -3.40039 -7.7998 -4 -11.2002 -1.2002l-614 483.5c-3.40039 2.7002 -4 7.7002 -1.2002 11.2002l10 12.5c2.7002 3.5 7.7998 4 11.2002 1.2002zM408 -32c4.40039 0 8 -3.59961 8 -8v-16c0 -4.40039 -3.59961 -8 -8 -8h-176c-4.40039 0 -8 3.59961 -8 8v16
c0 4.40039 3.59961 8 8 8h72v65.4004c-82.4004 8.2998 -144 81 -144 164.399v50.2998c0 2.60059 1.5 4.60059 3.5 6.10059l28.5 -22.5v-35.2002c0 -68.0996 51.2998 -127.7 119.3 -132.2c26.2998 -1.7998 50.9004 4.7998 71.9004 16.7998l26.3994 -20.7998
c-21.5 -14.5996 -46.3994 -24.5996 -73.5996 -27.2998v-65h72z" />
    <glyph glyph-name="money-bill-wave" unicode="&#xf53a;" 
d="M320 304c53.0195 0 96 -50.1396 96 -112c0 -61.8701 -43 -112 -96 -112c-53.0195 0 -96 50.1504 -96 112c0 61.8604 42.9805 112 96 112zM320 112c35.29 0 64 35.8896 64 80s-28.71 80 -64 80s-64 -35.8896 -64 -80s28.71 -80 64 -80zM621.16 393.54
c11.6094 -4.87012 18.8398 -16.8301 18.8398 -29.4697v-317.261c0 -18.4893 -15.04 -31.8096 -32.25 -31.8096c-14.6602 0 -38.0898 15.3496 -103 15.3496c-123.17 0 -246.33 -62.3496 -369.5 -62.3496c-38.7998 0 -77.6201 6.19043 -116.41 22.4697
c-11.6094 4.86035 -18.8398 16.8301 -18.8398 29.46v317.261c0 18.4893 15.04 31.8096 32.25 31.8096c14.6504 0 38.0898 -15.3398 103 -15.3398c123.17 0 246.33 62.3496 369.5 62.3398c38.7998 0 77.6201 -6.19043 116.41 -22.46zM32.9502 336.74l-0.219727 -73.3203
c33.6592 0.389648 60.9199 27.0205 62.8896 60.4297c-21.6396 2.36035 -42.4502 6.4707 -62.6699 12.8906zM32 19.9297c19.8799 -8.43945 41.0596 -13.8496 63.5098 -16.8896c-2.5 33.1201 -29.7998 59.3604 -63.3799 59.4297zM607.05 47.2598l0.219727 71.3906
c-33 -0.380859 -59.7998 -26.0205 -62.6895 -58.5205c21.5703 -2.36035 42.3096 -6.46973 62.4697 -12.8701zM607.36 150.8l0.40918 136.67c-52.7295 0.129883 -95.5596 43.1406 -95.7393 96.0703c-57.7305 1.33008 -109.431 -10.9502 -184.221 -29.8896
c-63.3799 -16.04 -129.869 -33.2803 -200.399 -31.8701c-3.06055 -50.2002 -44.1299 -90.1807 -94.7803 -90.5205l-0.410156 -136.67c52.0703 -0.120117 94.3203 -42.1094 95.5498 -94.1299c57.8701 -1.33984 109.341 10.8701 184.41 29.8701
c63.4199 16.0498 129.87 33.2998 200.601 31.8701c3.98926 49.2803 44.5801 88.2598 94.5801 88.5996zM607.87 319.6l0.129883 44.4707c-19.9297 8.45996 -41.1797 13.8799 -63.71 16.9102c1.54004 -34.04 29.3398 -61.3105 63.5801 -61.3809z" />
    <glyph glyph-name="money-bill-wave-alt" unicode="&#xf53b;" 
d="M320 304c53.0195 0 96 -50.1396 96 -112c0 -61.8701 -43 -112 -96 -112c-53.0195 0 -96 50.1504 -96 112c0 61.8604 42.9805 112 96 112zM320 112c35.29 0 64 35.8896 64 80s-28.71 80 -64 80s-64 -35.8896 -64 -80s28.71 -80 64 -80zM621.16 393.54
c11.6094 -4.87012 18.8398 -16.8301 18.8398 -29.4697v-317.261c0 -18.4893 -15.04 -31.8096 -32.25 -31.8096c-14.6602 0 -38.0898 15.3496 -103 15.3496c-123.17 0 -246.33 -62.3496 -369.5 -62.3496c-38.7998 0 -77.6201 6.19043 -116.41 22.4697
c-11.6094 4.86035 -18.8398 16.8301 -18.8398 29.46v317.261c0 18.4893 15.04 31.8096 32.25 31.8096c14.6504 0 38.0898 -15.3398 103 -15.3398c123.17 0 246.33 62.3496 369.5 62.3398c38.7998 0 77.6201 -6.19043 116.41 -22.46zM598.47 49.54
c3.77051 -1.05957 8.4707 -2.38965 10.0205 -2.57031l-0.490234 317.101c-31.25 13.3896 -65.2803 19.9297 -103.25 19.9297c-57.5996 0 -115.55 -14.6602 -176.92 -30.2002c-62.4502 -15.7998 -127.021 -32.1494 -192.59 -32.1494
c-48.4307 0 -76.7803 8.00977 -93.71 12.7998c-3.77051 1.05957 -8.4707 2.38965 -10.0205 2.56934l0.490234 -317.1c31.2598 -13.4004 65.29 -19.9297 103.25 -19.9297c57.5996 0 115.55 14.6699 176.9 30.2002c62.4492 15.8096 127.029 32.1494 192.6 32.1494
c48.4404 0 76.7803 -8.00977 93.7197 -12.7998z" />
    <glyph glyph-name="money-check" unicode="&#xf53c;" 
d="M624 416c8.83984 0 16 -7.16016 16 -16v-400c0 -17.6699 -14.3301 -32 -32 -32h-576c-17.6699 0 -32 14.3301 -32 32v400c0 8.83984 7.16016 16 16 16h608zM608 0v288h-576v-288h576zM608 320v64h-576v-64h576zM104 64c-4.41992 0 -8 3.58008 -8 8v16
c0 4.41992 3.58008 8 8 8h144c4.41992 0 8 -3.58008 8 -8v-16c0 -4.41992 -3.58008 -8 -8 -8h-144zM392 64c-4.41992 0 -8 3.58008 -8 8v16c0 4.41992 3.58008 8 8 8h144c4.41992 0 8 -3.58008 8 -8v-16c0 -4.41992 -3.58008 -8 -8 -8h-144zM104 160
c-4.41992 0 -8 3.58008 -8 8v16c0 4.41992 3.58008 8 8 8h208c4.41992 0 8 -3.58008 8 -8v-16c0 -4.41992 -3.58008 -8 -8 -8h-208zM400 160c-8.83984 0 -16 7.16016 -16 16v64c0 8.83984 7.16016 16 16 16h128c8.83984 0 16 -7.16016 16 -16v-64
c0 -8.83984 -7.16016 -16 -16 -16h-128zM416 224v-32h96v32h-96z" />
    <glyph glyph-name="money-check-alt" unicode="&#xf53d;" 
d="M608 416c17.6699 0 32 -14.3301 32 -32v-384c0 -17.6699 -14.3301 -32 -32 -32h-576c-17.6699 0 -32 14.3301 -32 32v384c0 17.6699 14.3301 32 32 32h576zM608 0v384h-576v-384h576zM296 128c-4.41992 0 -8 3.58008 -8 8v16c0 4.41992 3.58008 8 8 8h80
c4.41992 0 8 -3.58008 8 -8v-16c0 -4.41992 -3.58008 -8 -8 -8h-80zM536 160c4.41992 0 8 -3.58008 8 -8v-16c0 -4.41992 -3.58008 -8 -8 -8h-80c-4.41992 0 -8 3.58008 -8 8v16c0 4.41992 3.58008 8 8 8h80zM296 224c-4.41992 0 -8 3.58008 -8 8v16
c0 4.41992 3.58008 8 8 8h240c4.41992 0 8 -3.58008 8 -8v-16c0 -4.41992 -3.58008 -8 -8 -8h-240zM134.72 190.28c-18.0996 4.88965 -30.7197 21 -30.7197 39.1699c0 21.7295 17.8203 39.2002 40 40.2998v10.25c0 4.41992 3.58008 8 8 8h16c4.41992 0 8 -3.58008 8 -8
v-10.1699c10.29 -0.639648 20.0498 -3.87012 28.3496 -9.52051c3.73047 -2.5498 4.24023 -7.90918 1.13086 -11.1895l-12.0703 -12.7305c-2.40039 -2.5498 -6.16016 -2.83984 -9.24023 -1.17969c-3.54004 1.91016 -7.62012 2.9502 -11.7695 2.9502h-26.3408
c-5.55957 0 -10.0596 -3.90039 -10.0596 -8.7002c0 -3.75 2.90039 -7.16016 7.08984 -8.2998l42.1904 -11.4404c18.0996 -4.88965 30.7197 -21 30.7197 -39.1699c0 -21.7295 -17.8203 -39.2002 -40 -40.2998v-10.25c0 -4.41992 -3.58008 -8 -8 -8h-16
c-4.41992 0 -8 3.58008 -8 8v10.1699c-10.29 0.639648 -20.0498 3.87012 -28.3496 9.52051c-3.73047 2.5498 -4.24023 7.90918 -1.13086 11.1895l12.0703 12.7305c2.40039 2.5498 6.16016 2.84961 9.24023 1.17969c3.54004 -1.91016 7.62012 -2.9502 11.7695 -2.9502
h26.3408c5.55957 0 10.0596 3.90039 10.0596 8.7002c0 3.75 -2.90039 7.16016 -7.08984 8.2998z" />
    <glyph glyph-name="not-equal" unicode="&#xf53e;" horiz-adv-x="384" 
d="M376 288c4.41992 0 8 -3.58008 8 -8v-32c0 -4.41992 -3.58008 -8 -8 -8h-102.06l-96 -96h198.06c4.41992 0 8 -3.58008 8 -8v-32c0 -4.41992 -3.58008 -8 -8 -8h-246.06l-93.6602 -93.6504c-3.12012 -3.11914 -8.19043 -3.11914 -11.3105 0l-22.6299 22.6309
c-3.12012 3.11914 -3.12012 8.18945 0 11.3096l59.7197 59.71h-54.0596c-4.41992 0 -8 3.58008 -8 8v32c0 4.41992 3.58008 8 8 8h102.06l96 96h-198.06c-4.41992 0 -8 3.58008 -8 8v32c0 4.41992 3.58008 8 8 8h246.06l93.6602 93.6602
c3.12012 3.12012 8.19043 3.12012 11.3105 0l22.6299 -22.6299c3.12012 -3.12012 3.12012 -8.19043 0 -11.3105l-21.1602 -21.1602l-38.5596 -38.5596h54.0596z" />
    <glyph glyph-name="palette" unicode="&#xf53f;" horiz-adv-x="512" 
d="M112 184c13.2998 0 24 -10.7002 24 -24s-10.7002 -24 -24 -24s-24 10.7002 -24 24s10.7002 24 24 24zM144 296c13.2998 0 24 -10.7002 24 -24s-10.7002 -24 -24 -24s-24 10.7002 -24 24s10.7002 24 24 24zM256 448c141.1 0 255.6 -113.9 256.1 -254.7
c-0.0996094 -35.7002 -29.0996 -65.2998 -64.8994 -65.2998h-79.7002c-51 0 -84 -53 -60.9004 -98.4004c18.9004 -37.0996 -1.2998 -85.2998 -42.5 -91.6992c-8.09961 -1.30078 -16.2998 -1.90039 -24.5996 -1.90039c-123.1 0 -268.9 133.5 -234.3 308.6
c19.5996 99.1006 99.7002 179 199.1 198.4c17.5 3.40039 34.7998 5 51.7002 5zM447.1 160c18.1006 0 32.9004 15 32.9004 33.2998c-0.400391 122.7 -100.9 222.601 -224 222.601c-15 0 -30.2998 -1.5 -45.5 -4.5c-86.9004 -17 -156.8 -86.6006 -173.9 -173.2
c-13.5 -68.1006 3.40039 -135.101 47.4004 -188.7c41.4004 -50.2998 100.9 -81.5996 155.5 -81.5996c6.7998 0 13.4004 0.5 19.7002 1.5c10.7998 1.69922 16.2998 9.69922 18.7002 14.2998c4.89941 9.7002 5 21.7002 0.0996094 31.2998
c-15.9004 31.2002 -14.5 67.5 3.7002 97.2002c18.2998 29.8994 50.3994 47.7998 85.7002 47.7998h79.6992zM368 312c13.2998 0 24 -10.7002 24 -24s-10.7002 -24 -24 -24s-24 10.7002 -24 24s10.7002 24 24 24zM240 360c13.2998 0 24 -10.7002 24 -24s-10.7002 -24 -24 -24
s-24 10.7002 -24 24s10.7002 24 24 24z" />
    <glyph glyph-name="parking" unicode="&#xf540;" horiz-adv-x="448" 
d="M400 416c26.5 0 48 -21.5 48 -48v-352c0 -26.5 -21.5 -48 -48 -48h-352c-26.5 0 -48 21.5 -48 48v352c0 26.5 21.5 48 48 48h352zM416 16v352c0 8.7998 -7.2002 16 -16 16h-352c-8.7998 0 -16 -7.2002 -16 -16v-352c0 -8.7998 7.2002 -16 16 -16h352
c8.7998 0 16 7.2002 16 16zM244.1 320.1c46 0 87.1006 -33.5 91.5 -79.1992c5.10059 -52.5 -36.1992 -96.8008 -87.5996 -96.8008h-72v-72c0 -4.39941 -3.59961 -8 -8 -8h-16c-4.40039 0 -8 3.60059 -8 8v240c0 4.40039 3.59961 8 8 8h92.0996zM248 176
c30.9004 0 56 25.0996 56 56s-25.0996 56 -56 56h-72v-112h72z" />
    <glyph glyph-name="percentage" unicode="&#xf541;" horiz-adv-x="320" 
d="M317.66 315.72l-21.1602 -21.1602l-260.22 -260.21c-3.12012 -3.11914 -8.19043 -3.11914 -11.3105 0l-22.6299 22.6309c-3.12012 3.11914 -3.12012 8.18945 0 11.3096l281.38 281.37c3.12012 3.12012 8.19043 3.12012 11.3105 0l22.6299 -22.6299
c3.12012 -3.12012 3.12012 -8.19043 0 -11.3105zM64 224c-16.3799 0 -32.7598 6.25 -45.2598 18.7402c-24.9902 24.9902 -24.9902 65.5195 0 90.5098c12.5 12.5 28.8799 18.75 45.2598 18.75s32.7598 -6.25 45.25 -18.75c24.9902 -24.9902 24.9902 -65.5195 0 -90.5098
c-12.4902 -12.4902 -28.8701 -18.7402 -45.25 -18.7402zM41.3799 310.63c-12.4795 -12.4795 -12.4795 -32.7803 0 -45.2598c6.04004 -6.04004 14.0703 -9.37012 22.6201 -9.37012s16.5898 3.33008 22.6299 9.37988c12.4697 12.4697 12.4805 32.7705 0 45.25
c-6.0498 6.04004 -14.0801 9.37012 -22.6299 9.37012s-16.5801 -3.33008 -22.6201 -9.37012zM256 160c16.3799 0 32.7598 -6.25 45.25 -18.75c24.9902 -24.9902 24.9902 -65.5195 0 -90.5098c-12.4902 -12.4902 -28.8701 -18.7402 -45.25 -18.7402
s-32.7598 6.25 -45.2598 18.7402c-24.9902 24.9902 -24.9902 65.5195 0 90.5098c12.5 12.5 28.8799 18.75 45.2598 18.75zM278.63 73.3701c12.4697 12.4795 12.4805 32.7803 0 45.2598c-6.0498 6.04004 -14.0801 9.37012 -22.6299 9.37012
c-8.54004 0 -16.5801 -3.33008 -22.6201 -9.37012c-12.4795 -12.4795 -12.4795 -32.7803 0 -45.2598c6.04004 -6.04004 14.0703 -9.37012 22.6201 -9.37012s16.5898 3.33008 22.6299 9.37012z" />
    <glyph glyph-name="project-diagram" unicode="&#xf542;" 
d="M592 448c26.5098 0 48 -21.4902 48 -48v-96c0 -26.5098 -21.4902 -48 -48 -48h-96c-26.5098 0 -48 21.4902 -48 48v32h-256v-32c0 -15.2002 -7.2002 -28.5898 -18.2402 -37.3896l83.4307 -141.181c4.68945 1.53027 9.59961 2.57031 14.7998 2.57031h96
c26.5098 0 48 -21.4902 48 -48v-96c0 -26.5098 -21.4902 -48 -48 -48h-96c-26.5098 0 -48 21.4902 -48 48v96c0 9.51953 2.85938 18.3301 7.62988 25.79l-88.7598 150.21h-94.8604c-26.5098 0 -48 21.4902 -48 48v96c0 26.5098 21.4902 48 48 48h96
c26.5098 0 48 -21.4902 48 -48v-32h256v32c0 26.5098 21.4902 48 48 48h96zM32 304c0 -8.82031 7.17969 -16 16 -16h96c8.82031 0 16 7.17969 16 16v96c0 8.82031 -7.17969 16 -16 16h-96c-8.82031 0 -16 -7.17969 -16 -16v-96zM368 96h-96c-8.82031 0 -16 -7.17969 -16 -16
v-96c0 -8.82031 7.17969 -16 16 -16h96c8.82031 0 16 7.17969 16 16v96c0 8.82031 -7.17969 16 -16 16zM608 304v96c0 8.82031 -7.17969 16 -16 16h-96c-8.82031 0 -16 -7.17969 -16 -16v-96c0 -8.82031 7.17969 -16 16 -16h96c8.82031 0 16 7.17969 16 16z" />
    <glyph glyph-name="receipt" unicode="&#xf543;" horiz-adv-x="448" 
d="M344 208c4.40039 0 8 -3.59961 8 -8v-16c0 -4.40039 -3.59961 -8 -8 -8h-240c-4.40039 0 -8 3.59961 -8 8v16c0 4.40039 3.59961 8 8 8h240zM344 112c4.40039 0 8 -3.59961 8 -8v-16c0 -4.40039 -3.59961 -8 -8 -8h-240c-4.40039 0 -8 3.59961 -8 8v16
c0 4.40039 3.59961 8 8 8h240zM418.1 448c15.6006 0 29.9004 -12.5 29.8008 -29.9004v-452.3c0 -17.5996 -14.3008 -29.7998 -29.8008 -29.7998c-5.89941 0 -11.8994 1.7998 -17.2998 5.7002l-43.5 31.2998l-38.5996 -27.7998
c-8.40039 -6.10059 -18.2002 -9.10059 -28 -9.10059s-19.7002 3.10059 -28.1006 9.10059l-38.5996 27.7998l-38.5996 -27.7998c-8.40039 -6.10059 -18.2002 -9.10059 -28 -9.10059c-9.90039 0 -19.7002 3.10059 -28.1006 9.10059l-38.5996 27.7998l-43.5 -31.2998
c-5.5 -3.90039 -11.5 -5.7002 -17.2998 -5.7002c-15.6006 0 -29.9004 12.5 -29.9004 29.7998v452.3c0 17.6006 14.4004 29.8008 29.9004 29.9004c5.89941 0 11.8994 -1.7998 17.2998 -5.7002l43.5 -31.2998l38.5996 27.7998c8.40039 6.10059 18.2002 9.10059 28 9.10059
s19.7002 -3.10059 28.1006 -9.10059l38.5996 -27.7998l38.5996 27.7998c8.40039 6.10059 18.2002 9.10059 28 9.10059c9.90039 0 19.7002 -3.10059 28.1006 -9.10059l38.5996 -27.7998l43.5 31.2998c5.5 3.90039 11.5 5.7002 17.2998 5.7002zM416 -29.7998v443.6
l-40 -28.7998l-18.5996 -13.5l-18.7002 13.5l-38.6006 27.7002c-2.7998 2 -6 3.09961 -9.39941 3.09961c-3.40039 0 -6.60059 -1 -9.40039 -3l-38.5996 -27.7998l-18.7002 -13.5l-18.7002 13.5l-38.5996 27.7002c-2.7998 2 -6 3.09961 -9.40039 3.09961
c-3.2998 0 -6.5 -1 -9.2998 -3l-38.5996 -27.7998l-18.7002 -13.5l-18.7002 13.5l-40 28.7998v-444.2l40 29.4004l18.5996 13.5l18.7002 -13.5l38.6006 -27.7002c2.7998 -2 6 -3.09961 9.39941 -3.09961c3.40039 0 6.60059 1 9.40039 3l38.5996 27.7998l18.7002 13.5
l18.7002 -13.5l38.5996 -27.7002c2.7998 -2 6 -3.09961 9.40039 -3.09961c3.2998 0 6.5 1 9.2998 3l38.5996 27.7998l18.7002 13.5l18.7002 -13.5zM344 304c4.40039 0 8 -3.59961 8 -8v-16c0 -4.40039 -3.59961 -8 -8 -8h-240c-4.40039 0 -8 3.59961 -8 8v16
c0 4.40039 3.59961 8 8 8h240z" />
    <glyph glyph-name="ruler" unicode="&#xf545;" 
d="M635.7 282.2c8.7998 -15.2002 3.59961 -34.7002 -11.7002 -43.2998l-496.6 -286.5c-5 -2.90039 -10.5 -4.30078 -15.9004 -4.30078c-11 0 -21.7002 5.7002 -27.5996 15.9004l-79.6006 137.8c-8.7998 15.2002 -3.59961 34.7002 11.6006 43.4004l496.699 286.5
c5 2.89941 10.5 4.2998 15.9004 4.2998c11 0 21.7002 -5.7002 27.5996 -15.9004zM111.5 -20.2002l496.7 286.7l-79.6006 137.8l-69 -39.7998l43.8008 -75.7998c2.19922 -3.7998 0.899414 -8.7002 -2.90039 -10.9004l-13.7998 -8
c-3.7998 -2.2002 -8.7002 -0.899414 -10.9004 2.90039l-43.7998 75.7998l-55.2002 -31.7998l27.9004 -48.2002c2.2002 -3.7998 0.899414 -8.7002 -2.90039 -10.9004l-13.7998 -8c-3.7998 -2.19922 -8.7002 -0.899414 -10.9004 2.90039l-27.8994 48.2002l-55.2002 -31.7998
l43.9004 -75.6006c2.19922 -3.7998 0.899414 -8.7002 -2.90039 -10.8994l-13.7998 -8c-3.7998 -2.2002 -8.7002 -0.900391 -10.9004 2.89941l-43.7998 75.7998l-55.2002 -31.7998l27.9004 -48.2002c2.2002 -3.7998 0.899414 -8.69922 -2.90039 -10.8994l-13.7998 -8
c-3.7998 -2.2002 -8.7002 -0.900391 -10.9004 2.89941l-27.8994 48.2002l-55.2002 -31.7998l43.7998 -75.7998c2.2002 -3.7998 0.900391 -8.7002 -2.89941 -10.9004l-13.8008 -8c-3.7998 -2.2002 -8.69922 -0.899414 -10.8994 2.90039l-43.7998 75.7998l-69 -39.7998z" />
    <glyph glyph-name="ruler-combined" unicode="&#xf546;" horiz-adv-x="512" 
d="M480 128c17.6699 0 32 -14.3301 32 -32v-128c0 -17.6699 -14.3301 -32 -32 -32h-448c-17.6699 0 -32 14.3301 -32 32v448c0 17.6699 14.3301 32 32 32h128c17.6699 0 32 -14.3301 32 -32v-288h288zM32 416v-425.38l128 128v41.3799h-56c-4.41992 0 -8 3.58008 -8 8v16
c0 4.41992 3.58008 8 8 8h56v48h-56c-4.41992 0 -8 3.58008 -8 8v16c0 4.41992 3.58008 8 8 8h56v48h-56c-4.41992 0 -8 3.58008 -8 8v16c0 4.41992 3.58008 8 8 8h56v64h-128zM480 -32v128h-64v-56c0 -4.41992 -3.58008 -8 -8 -8h-16c-4.41992 0 -8 3.58008 -8 8v56h-48
v-56c0 -4.41992 -3.58008 -8 -8 -8h-16c-4.41992 0 -8 3.58008 -8 8v56h-48v-56c0 -4.41992 -3.58008 -8 -8 -8h-16c-4.41992 0 -8 3.58008 -8 8v56h-41.3799l-128 -128h425.38z" />
    <glyph glyph-name="ruler-horizontal" unicode="&#xf547;" 
d="M608 320c17.6699 0 32 -14.3301 32 -32v-192c0 -17.6699 -14.3301 -32 -32 -32h-576c-17.6699 0 -32 14.3301 -32 32v192c0 17.6699 14.3301 32 32 32h576zM608 96v192h-80v-56c0 -4.41992 -3.58008 -8 -8 -8h-16c-4.41992 0 -8 3.58008 -8 8v56h-64v-56
c0 -4.41992 -3.58008 -8 -8 -8h-16c-4.41992 0 -8 3.58008 -8 8v56h-64v-56c0 -4.41992 -3.58008 -8 -8 -8h-16c-4.41992 0 -8 3.58008 -8 8v56h-64v-56c0 -4.41992 -3.58008 -8 -8 -8h-16c-4.41992 0 -8 3.58008 -8 8v56h-64v-56c0 -4.41992 -3.58008 -8 -8 -8h-16
c-4.41992 0 -8 3.58008 -8 8v56h-80v-192h576z" />
    <glyph glyph-name="ruler-vertical" unicode="&#xf548;" horiz-adv-x="256" 
d="M224 448c17.6699 0 32 -14.3301 32 -32v-448c0 -17.6699 -14.3301 -32 -32 -32h-192c-17.6699 0 -32 14.3301 -32 32v448c0 17.6699 14.3301 32 32 32h192zM32 -32h192v64h-56c-4.41992 0 -8 3.58008 -8 8v16c0 4.41992 3.58008 8 8 8h56v64h-56
c-4.41992 0 -8 3.58008 -8 8v16c0 4.41992 3.58008 8 8 8h56v64h-56c-4.41992 0 -8 3.58008 -8 8v16c0 4.41992 3.58008 8 8 8h56v64h-56c-4.41992 0 -8 3.58008 -8 8v16c0 4.41992 3.58008 8 8 8h56v64h-192v-448z" />
    <glyph glyph-name="school" unicode="&#xf549;" 
d="M352 256c4.41992 0 8 -3.58008 8 -8v-16c0 -4.41992 -3.58008 -8 -8 -8h-40c-4.41992 0 -8 3.58008 -8 8v56c0 4.41992 3.58008 8 8 8h16c4.41992 0 8 -3.58008 8 -8v-32h16zM368 128c26.5098 0 48 -21.4902 48 -48v-136c0 -4.41992 -3.58008 -8 -8 -8h-16
c-4.41992 0 -8 3.58008 -8 8v136c0 8.83984 -7.16016 16 -16 16h-96c-8.83984 0 -16 -7.16016 -16 -16v-136c0 -4.41992 -3.58008 -8 -8 -8h-16c-4.41992 0 -8 3.58008 -8 8v136c0 26.5098 21.4902 48 48 48h96zM608 256c17.6699 0 32 -14.3301 32 -32v-280
c0 -4.41992 -3.58008 -8 -8 -8h-16c-4.41992 0 -8 3.58008 -8 8v280h-96v-280c0 -4.41992 -3.58008 -8 -8 -8h-16c-4.41992 0 -8 3.58008 -8 8v365.33l-160 106.67l-160 -106.67v-365.33c0 -4.41992 -3.58008 -8 -8 -8h-16c-4.41992 0 -8 3.58008 -8 8v280h-96v-280
c0 -4.41992 -3.58008 -8 -8 -8h-16c-4.41992 0 -8 3.58008 -8 8v280c0 17.6699 14.3301 32 32 32h96v53.3301c0.00195312 11.1113 5.64453 20.8887 14.25 26.6299l160 106.67c5.37012 3.58008 11.5596 5.37012 17.75 5.37012s12.3799 -1.79004 17.75 -5.37012l160 -106.67
c8.90039 -5.92969 14.25 -15.9199 14.25 -26.6201v-53.3398h96zM320 352c52.9404 0 96 -43.0596 96 -96s-43.0596 -96 -96 -96s-96 43.0596 -96 96s43.0596 96 96 96zM320 192c35.2803 0 64 28.7002 64 64s-28.7197 64 -64 64s-64 -28.7002 -64 -64s28.7197 -64 64 -64z" />
    <glyph glyph-name="screwdriver" unicode="&#xf54a;" horiz-adv-x="512" 
d="M416 256h-73.3701l-98.5 -98.5c18.5605 -28.9297 15.2705 -67.8301 -10.0303 -93.1299l-117.43 -117.43c-7.2998 -7.30078 -16.8604 -10.9502 -26.4297 -10.9502c-9.56055 0 -19.1299 3.64941 -26.4307 10.9502l-52.8594 52.8594
c-14.6006 14.6006 -14.6006 38.2705 0 52.8701l117.43 117.43c14.6006 14.5908 33.7305 21.8906 52.8604 21.8906c14.0293 0 28.0293 -4.00977 40.2695 -11.8604l98.4902 98.4902v73.3799l128 96l64 -64zM352 336v-48h48l69.75 93l-24.75 24.75zM211.41 87.0801
c16.6299 16.6299 16.6299 43.7002 0.00976562 60.3301c-8.05957 8.05957 -18.7695 12.5 -30.1699 12.5s-22.1104 -4.44043 -30.1699 -12.5l-117.43 -117.43c-0.955078 -0.958984 -1.5459 -2.28223 -1.5459 -3.74121s0.59082 -2.78027 1.5459 -3.73926l52.8496 -52.8604
c1.28027 -1.2793 2.74023 -1.5498 3.74023 -1.5498c0.0126953 0 0.0263672 -0.000976562 0.0400391 -0.000976562c1.44727 0 2.75781 0.59375 3.7002 1.55078z" />
    <glyph glyph-name="shoe-prints" unicode="&#xf54b;" 
d="M337.46 176c90.3604 0 174.54 -34.29 174.54 -102.86c0 -81.9795 -108.16 -137.14 -218.7 -137.14c-43.1299 0 -75.8799 7.7002 -107.77 17.1797l-57.5303 14.8203h-64c-35.3496 0 -64 32.9805 -64 70.8496c0 37.8701 28.6504 68.5703 64 68.5703h64
c60.21 0 79.9404 16.7402 104.73 34.29c28.5693 20.2305 69.8193 34.29 104.729 34.29zM112 0v75.4297h-48c-17.6396 0 -32 -16.3994 -32 -36.5693c0 -20.7002 14.9502 -38.8604 32 -38.8604h48zM193.51 -15.8398c165 -48.9404 286.49 26.8301 286.49 88.9795
c0 58.1299 -141.67 104.48 -232.92 39.5107c-22.3301 -15.96 -47.75 -33.6699 -103.08 -36.6201v-79.1104zM421.29 448c111.83 0 218.71 -55.8398 218.71 -137.14c0 -68.5703 -84.1797 -102.86 -174.54 -102.86c-34.9199 0 -76.1602 14.0596 -104.729 34.2803
c-24.79 17.5596 -44.5303 34.29 -104.73 34.29h-64c-35.3496 0 -64 30.6992 -64 68.5693c0 37.8799 28.6504 70.8604 64 70.8604h64l57.5195 14.8301c31.6006 9.38965 64.3506 17.1699 107.771 17.1699zM240 308.57v75.4297h-48c-17.0498 0 -32 -18.1602 -32 -38.8604
c0 -20.1699 14.3604 -36.5693 32 -36.5693h48zM465.46 240c70.8301 0 142.54 24.3398 142.54 70.8604c0 79.1201 -134.62 105.14 -186.71 105.14c-39.5703 0 -69.2402 -7.09961 -98.6396 -15.8496l-50.6504 -13.0703v-79.1201
c58.46 -3.11035 83.5098 -22.6699 107.22 -39.5596c24 -16.9902 58.6602 -28.4004 86.2402 -28.4004z" />
    <glyph glyph-name="smoking-ban" unicode="&#xf54d;" horiz-adv-x="512" 
d="M256 448c141.4 0 256 -114.6 256 -256s-114.6 -256 -256 -256s-256 114.6 -256 256s114.6 256 256 256zM256 -32c56 0 107.2 20.7998 146.5 54.9004l-315.6 315.6c-34.1006 -39.2998 -54.9004 -90.5 -54.9004 -146.5c0 -123.5 100.5 -224 224 -224zM278.6 192l32 -32
h73.4004v32h-105.4zM425.1 45.5c34.1006 39.2998 54.9004 90.5 54.9004 146.5c0 123.5 -100.5 224 -224 224c-56 0 -107.2 -20.7998 -146.5 -54.9004l137.1 -137.1h153.4c8.7998 0 16 -7.2002 16 -16v-64c0 -8.7998 -7.2002 -16 -16 -16h-57.4004zM112 128
c-8.7998 0 -16 7.2002 -16 16v64c0 8.7998 7.2002 16 16 16h44.0996l32 -32h-60.0996v-32h92.0996l32 -32h-140.1zM352 320c32.0996 0 58.7998 -23.7002 63.2998 -54.5996c0.700195 -4.90039 -3 -9.40039 -8 -9.40039h-16.2002c-3.69922 0 -7 2.5 -7.69922 6.09961
c-2.80078 14.7002 -15.8008 25.9004 -31.4004 25.9004c-32.0996 0 -58.7002 23.7002 -63.2998 54.5996c-0.700195 4.90039 3 9.40039 8 9.40039h16.2002c3.69922 0 7 -2.5 7.69922 -6.09961c2.80078 -14.7002 15.8008 -25.9004 31.4004 -25.9004z" />
    <glyph glyph-name="store-alt" unicode="&#xf54f;" 
d="M635.7 271.9c12.2002 -21.4004 -3.10059 -47.9004 -27.7002 -47.9004h-32v-280c0 -4.40039 -3.59961 -8 -8 -8h-16c-4.40039 0 -8 3.59961 -8 8v280h-160v-254.5c0 -18.5 -14.2998 -33.5 -32 -33.5h-256c-17.7002 0 -32 15 -32 33.5v254.5h-32
c-24.5996 0 -39.9004 26.5 -27.7002 47.9004l91.4004 160c5.7002 9.89941 16.2998 16.0996 27.7998 16.0996h393c11.5 0 22.0996 -6.2002 27.7998 -16.0996zM352 -30.5v126.5h-256v-126.5c0 -1.2002 0.599609 -1.7002 0.599609 -1.7002l255.2 0.200195
c-0.0996094 0.0996094 0.200195 0.599609 0.200195 1.5zM352 128v96h-256v-96h256zM32.0996 256h575.9l-91.5 160h-393z" />
    <glyph glyph-name="stream" unicode="&#xf550;" horiz-adv-x="512" 
d="M8 320c-4.41992 0 -8 3.58008 -8 8v16c0 4.41992 3.58008 8 8 8h432c4.41992 0 8 -3.58008 8 -8v-16c0 -4.41992 -3.58008 -8 -8 -8h-432zM504 208c4.41992 0 8 -3.58008 8 -8v-16c0 -4.41992 -3.58008 -8 -8 -8h-432c-4.41992 0 -8 3.58008 -8 8v16
c0 4.41992 3.58008 8 8 8h432zM440 64c4.41992 0 8 -3.58008 8 -8v-16c0 -4.41992 -3.58008 -8 -8 -8h-432c-4.41992 0 -8 3.58008 -8 8v16c0 4.41992 3.58008 8 8 8h432z" />
    <glyph glyph-name="stroopwafel" unicode="&#xf551;" horiz-adv-x="512" 
d="M256 448c141.38 0 256 -114.62 256 -256s-114.62 -256 -256 -256s-256 114.62 -256 256s114.62 256 256 256zM256 -32c123.51 0 224 100.49 224 224s-100.49 224 -224 224s-224 -100.49 -224 -224s100.49 -224 224 -224zM414.39 192l28.2705 -28.2998
c3.12012 -3.12012 3.12012 -8.19043 0 -11.3105l-11.3105 -11.3096c-3.11914 -3.12012 -8.18945 -3.12012 -11.3096 0l-28.29 28.2803l-45.25 -45.25l22.6299 -22.6299l16.9697 16.9697c3.12012 3.12012 8.19043 3.12012 11.3105 0l11.3096 -11.3105
c3.12012 -3.12012 3.12012 -8.18945 0 -11.3096l-16.9697 -16.9697l5.66016 -5.66016c3.12012 -3.12012 3.12012 -8.19043 0 -11.3105l-11.3105 -11.3096c-3.11914 -3.12012 -8.18945 -3.12012 -11.3096 0l-5.66016 5.66016l-16.9697 -16.9707
c-3.12012 -3.11914 -8.19043 -3.11914 -11.3105 0l-11.3096 11.3105c-3.12012 3.12012 -3.12012 8.18945 0 11.3096l16.9697 16.9707l-22.6299 22.6299l-45.2598 -45.2598l28.29 -28.29c3.12012 -3.12012 3.12012 -8.19043 0 -11.3105l-11.3105 -11.3096
c-3.11914 -3.12012 -8.18945 -3.12012 -11.3096 0l-28.29 28.29l-28.3096 -28.2803c-3.12012 -3.12012 -8.19043 -3.12012 -11.3105 0l-11.3096 11.3096c-3.12012 3.12012 -3.12012 8.19043 0 11.3105l28.29 28.29l-45.2607 45.2598l-22.6299 -22.6299l16.9707 -16.9697
c3.11914 -3.12012 3.11914 -8.19043 0 -11.3105l-11.3105 -11.3096c-3.12012 -3.12012 -8.18945 -3.12012 -11.3096 0l-16.9707 16.9697l-5.65918 -5.66016c-3.12012 -3.12012 -8.19043 -3.12012 -11.3105 0l-11.3096 11.3105c-3.12012 3.11914 -3.12012 8.18945 0 11.3096
l5.66016 5.66016l-16.9707 16.9697c-3.12012 3.12012 -3.12012 8.19043 0 11.3105l11.3105 11.3096c3.12012 3.12012 8.18945 3.12012 11.3096 0l16.9697 -16.9697l22.6309 22.6299l-45.25 45.25l-28.29 -28.2803c-3.12012 -3.12012 -8.19043 -3.12012 -11.3105 0
l-11.3096 11.3105c-3.12012 3.11914 -3.12012 8.18945 0 11.3096l28.29 28.29l-28.29 28.29c-3.12012 3.12012 -3.12012 8.19043 0 11.3096l11.3398 11.3408c3.12012 3.11914 8.18945 3.11914 11.3096 0l28.29 -28.2803l45.25 45.25l-22.6299 22.6299l-16.9697 -16.9697
c-3.12012 -3.12012 -8.19043 -3.12012 -11.3105 0l-11.3096 11.3096c-3.12012 3.12012 -3.12012 8.19043 0 11.3105l16.9697 16.9697l-5.66016 5.66016c-3.11914 3.12012 -3.11914 8.18945 0 11.3096l11.3105 11.3105c3.12012 3.11914 8.18945 3.11914 11.3096 0
l5.66016 -5.66016l16.9697 16.9697c3.12012 3.12012 8.19043 3.12012 11.3105 0l11.3096 -11.3096c3.12012 -3.12012 3.12012 -8.19043 0 -11.3105l-16.9697 -16.9697l22.6299 -22.6299l45.25 45.25l-28.29 28.2793c-3.12012 3.12012 -3.12012 8.19043 0 11.3105
l11.3105 11.3096c3.11914 3.12012 8.18945 3.12012 11.3096 0l28.29 -28.29l28.29 28.29c3.12012 3.12012 8.19043 3.12012 11.3096 0l11.3203 -11.3496c3.12012 -3.12012 3.12012 -8.19043 0 -11.3105l-28.29 -28.2793l45.2598 -45.25l22.6299 22.6299l-16.9697 16.9697
c-3.12012 3.12012 -3.12012 8.19043 0 11.3105l11.3105 11.3096c3.12012 3.12012 8.18945 3.12012 11.3096 0l16.9697 -16.9697l5.66016 5.66016c3.12012 3.11914 8.19043 3.11914 11.3105 0l11.3096 -11.3105c3.12012 -3.12012 3.12012 -8.18945 0 -11.3096
l-5.66016 -5.66016l16.9707 -16.9697c3.11914 -3.12012 3.11914 -8.19043 0 -11.3105l-11.3105 -11.3096c-3.12012 -3.12012 -8.18945 -3.12012 -11.3096 0l-16.9707 16.9697l-22.6299 -22.6299l45.2598 -45.25l28.2803 28.2803c3.12012 3.11914 8.19043 3.11914 11.3105 0
l11.3096 -11.3105c3.12012 -3.12012 3.12012 -8.18945 0 -11.3096zM256 305.14l-45.25 -45.2598l45.25 -45.25l45.25 45.2598zM142.86 192l45.25 -45.2598l45.2598 45.2598l-45.2598 45.2598zM256 78.8604l45.2598 45.2598l-45.2598 45.2598l-45.2598 -45.2598z
M323.88 146.75l45.2598 45.25l-45.25 45.25l-45.2598 -45.25z" />
    <glyph glyph-name="toolbox" unicode="&#xf552;" horiz-adv-x="512" 
d="M502.63 233.37c6 -6 9.37012 -14.1396 9.37012 -22.6201v-210.75c0 -17.6699 -14.3301 -32 -32 -32h-448c-17.6699 0 -32 14.3301 -32 32v210.74c0 8.49023 3.37012 16.6299 9.37012 22.6299l45.25 45.2598c6.00977 6 14.1396 9.37012 22.6299 9.37012h50.75v80
c0 26.4697 21.5303 48 48 48h160c26.4697 0 48 -21.5303 48 -48v-80h50.75c8.49023 0 16.6299 -3.37012 22.6299 -9.37012zM160 368v-80h192v80c0 8.83008 -7.19043 16 -16 16h-160c-8.80957 0 -16 -7.16992 -16 -16zM480 0v96h-96v-24c0 -4.41992 -3.58008 -8 -8 -8h-16
c-4.41992 0 -8 3.58008 -8 8v24h-192v-24c0 -4.41992 -3.58008 -8 -8 -8h-16c-4.41992 0 -8 3.58008 -8 8v24h-96v-96h448zM384 128h96v82.75l-45.2598 45.25h-357.49l-45.25 -45.25v-82.75h96v24c0 4.41992 3.58008 8 8 8h16c4.41992 0 8 -3.58008 8 -8v-24h192v24
c0 4.41992 3.58008 8 8 8h16c4.41992 0 8 -3.58008 8 -8v-24z" />
    <glyph glyph-name="walking" unicode="&#xf554;" horiz-adv-x="320" 
d="M305.5 200.7c14.7002 -16 18.5996 -38.1006 10 -57.6006c-8.5 -19.5996 -27.0996 -32.1992 -47.4004 -32.1992c-1.89941 0 -3.69922 0.0996094 -5.5 0.299805c6.90039 -11.1006 11.9004 -23.5 14.7002 -36.7002l15.6006 -74.0996c6 -28.3008 -10.6006 -56 -38 -62.9004
c-4 -1 -8.10059 -1.5 -12.1006 -1.5c-23.7998 0 -44.7998 17.5 -49.8994 41.7998l-15.6006 74.2002c-0.0996094 0.599609 -0.399414 1.40039 -0.899414 1.90039l-10.6006 10.6992l-8.7002 -23.8994c-5 -13.6006 -12.3994 -25.9004 -22 -36.5l-46.6992 -51.2002
c-9.60059 -10.5996 -23.2002 -16.5996 -37.2002 -16.5996s-27.6006 6.09961 -37.2002 16.5996c-18.7002 20.5 -18.7002 52.5 0 72.9004l47.4004 52.3994l16.2998 44.6006l14.2002 38.8994c-0.200195 1.40039 -0.400391 2.7002 -0.600586 4.10059
c-8.89941 -8.2002 -20.3994 -12.9004 -32.8994 -12.9004c-17.2002 0 -33.8008 9 -43.5 23.5996c-9.90039 15 -11.5 33.5 -4.2002 50.7002l11.7998 28c11.5 25.1006 30.9004 44.7002 54.9004 55.2002l8.59961 3.7998c16.9004 7.60059 30.5996 13.6006 45.2998 17.4004
c-8.39941 12 -13.2998 26.5996 -13.2998 42.2998c0 40.7998 33.2002 74 74 74s74 -33.2002 74 -74c0 -25.2002 -12.7002 -47.5 -32 -60.9004c19.9004 -15 35.2998 -36.6992 43.2002 -62.7998l8.7002 -28.5zM192 416c-23.2002 0 -42 -18.7998 -42 -42s18.7998 -42 42 -42
s42 18.7998 42 42s-18.7998 42 -42 42zM127 51.7002l10.7002 29.5996l-29 29.2998l-1 1.2002l-0.100586 0.100586l-16.2998 -44.6006c-1.59961 -4.39941 -4 -8.39941 -7.09961 -11.7998l-46.7002 -51.2002c-7.5 -8.2002 -7.5 -21.5 0 -29.7002
c3.7998 -4.09961 8.7002 -6.19922 13.5996 -6.19922c5 0 9.90039 2.09961 13.6006 6.19922l46.7002 51.2002c6.7998 7.5 12.0996 16.2002 15.5996 25.9004zM268.1 142.8c14.8008 0 28 20.9004 13.9004 36.2002l-23.4004 25.2998
c-0.799805 0.799805 -1.2998 1.7998 -1.59961 2.7998l-10.2998 33.9004c-11.5 37.7002 -43.5 63 -79.7998 63c-27.9004 0 -42.4004 -7.7002 -76.6006 -22.7998c-16.7002 -7.2998 -30.2998 -21 -38.5996 -39.2002l-11.5 -27.2002c-7 -16.5 5.7002 -29.8994 18.2002 -29.8994
c6.5 0 12.8994 3.59961 16.5996 12.2998l11.2002 26.5996c3.7998 8.40039 10.2998 14.9004 18.2998 18.4004c17.2998 7.7002 26.4004 11.7998 35.4004 15l-15.8008 -69.2998c-3.7998 -16.5 0.300781 -33.9004 11.9004 -47.7002l63.0996 -63.9004
c4.80078 -4.7998 8.10059 -10.8994 9.5 -17.7998l15.6006 -74.2002c1.89941 -8.7002 9.2002 -16.2998 18.5996 -16.2998c1.40039 0 2.90039 0.0996094 4.40039 0.5c10.3994 2.59961 16.7998 13.9004 14.3994 25.2002l-15.5996 74.0996
c-3.09961 15.1006 -10.4004 28.7002 -20.7998 39.2998l-43 43.4004l20.8994 91.7002c6 -8.60059 6.10059 -11 17.5 -48.5c2.2002 -7.2998 6 -14 11 -19.4004l23.5 -25.2998c4 -4.40039 8.60059 -6.2002 13 -6.2002z" />
    <glyph glyph-name="wallet" unicode="&#xf555;" horiz-adv-x="512" 
d="M384 192c17.6699 0 32 -14.3301 32 -32s-14.3301 -32 -32 -32s-32 14.3301 -32 32s14.3301 32 32 32zM464 352c26.5098 0 48 -21.4902 48 -48v-272c0 -35.3496 -28.6504 -64 -64 -64h-352c-53.0195 0 -96 42.9805 -96 96v256c0 53.0195 42.9805 96 96 96h304
c26.5098 0 48 -21.4902 48 -48v-16h16zM480 32v272c0 8.82031 -7.17969 16 -16 16h-352c-8.83984 0 -16 7.16016 -16 16s7.16016 16 16 16h304v16c0 8.82031 -7.17969 16 -16 16h-304c-35.29 0 -64 -28.71 -64 -64v-256c0 -35.29 28.71 -64 64 -64h352
c17.6396 0 32 14.3604 32 32z" />
  </font>
</defs>
</svg>
