<?xml version="1.0" standalone="no"?>
<!DOCTYPE svg PUBLIC "-//W3C//DTD SVG 1.1//EN" "http://www.w3.org/Graphics/SVG/1.1/DTD/svg11.dtd" >
<svg xmlns="http://www.w3.org/2000/svg" xmlns:xlink="http://www.w3.org/1999/xlink" version="1.1">
<metadata>
Created by FontForge 20200314 at Mon Oct  5 09:52:19 2020
 By Robert Madole
Copyright (c) Font Awesome
</metadata>
<!-- Font Awesome Pro 5.15.1 by @fontawesome - https://fontawesome.com License - https://fontawesome.com/license (Commercial License) --><defs>
<font id="FontAwesome5Pro-Regular" horiz-adv-x="512" >
  <font-face 
    font-family="Font Awesome 5 Pro Regular"
    font-weight="400"
    font-stretch="normal"
    units-per-em="512"
    panose-1="2 0 5 3 0 0 0 0 0 0"
    ascent="448"
    descent="-64"
    bbox="-0.0663408 -64.0996 640.1 448.02"
    underline-thickness="25"
    underline-position="-50"
    unicode-range="U+0020-F8FF"
  />
    <missing-glyph />
    <glyph glyph-name="gift" unicode="&#xf06b;" 
d="M464 304c26.5 0 48 -21.5 48 -48v-128c0 -8.7998 -7.2002 -16 -16 -16h-16v-107.4c0 -29 -23.5996 -52.5996 -52.5996 -52.5996h-342.801c-29 0 -52.5996 23.5996 -52.5996 52.5996v107.4h-16c-8.7998 0 -16 7.2002 -16 16v128c0 26.5 21.5 48 48 48h28.0996
c-6.2998 12.0996 -10.0996 25.5 -10.0996 40c0 48.5 39.5 88 88 88c41.5996 0 68.5 -21.2998 103 -68.2998c34.5 47 61.4004 68.2998 103 68.2998c48.5 0 88 -39.5 88 -88c0 -14.5 -3.90039 -27.9004 -10.0996 -40h26.0996zM232 0v256h-184v-96h144v-48h-112v-107.4
c0 -2.59961 2.09961 -4.59961 4.59961 -4.59961h147.4zM153.9 304h86.0996l-2 3c-46.5996 69.4004 -62.0996 77 -84.0996 77c-22.1006 0 -40 -17.9004 -40 -40s17.8994 -40 40 -40zM275.9 307l-2 -3h86.0996c22.0996 0 40 17.9004 40 40s-17.9004 40 -40 40
c-22 0 -37.5 -7.59961 -84.0996 -77zM464 160v96h-184v-256h147.4c2.59961 0 4.59961 2.09961 4.59961 4.59961v107.4h-112v48h144z" />
    <glyph glyph-name="signature" unicode="&#xf5b7;" horiz-adv-x="640" 
d="M637.2 248.2c1.7998 -1.60059 2.7998 -3.90039 2.89941 -6.2002v-33.5c0 -4.40039 -3.39941 -7.7998 -8.09961 -8.2002c-29.2998 -2.5 -69.2002 -26.0996 -104.4 -47c-15.2998 -9.09961 -29.7998 -17.7002 -40.2998 -22.5
c-34.3994 -15.7002 -66.7998 -30.5996 -101.6 -30.5996c-26.5 0 -47.1006 8 -61.2002 23.7002c-21.5 24 -21.0996 53.2998 -19 81.1992l1.5 19.2002l-14.7998 -12c-58.7998 -47.7998 -173.8 -160.8 -217.3 -205c-4.60059 -4.7002 -10.8008 -7.2998 -17.4004 -7.2998
c-10.9004 0 -16.7998 5.5 -19.9004 10.0996c-4.69922 7 -5.89941 17 -3 24.3008l100.801 256.199c5.09961 13 1.5 27.1006 -9.10059 36.1006c-5.7998 4.89941 -12.7002 7.39941 -19.7002 7.39941c-5.7998 0 -11.5996 -1.69922 -17 -5.09961l-59.2998 -40.5996
c-1.89941 -1.2002 -4.09961 -1.5 -6.2002 -1.10059c-2.19922 0.5 -4 1.7998 -5.19922 3.7002l-17.6006 28.2998c-2.39941 3.7998 -1.2998 9 2.7002 11.6006l56 38.2998c38.9004 25.2002 75.9004 14.3994 97.7002 -4c27.2998 -23 36.5 -59.6006 23.2998 -93.1006
l-56.5996 -144.3l27.3994 26.9004c92.1006 90.0996 140.9 127.5 168.7 129.1c11 0.700195 19.5 -2.09961 25.5 -8.59961c9.7998 -10.7998 13.4004 -32.9004 9.7002 -61.2998c-3.2002 -24.6006 -3.40039 -43.3008 6.09961 -54.3008
c5.2998 -6.2998 13.2002 -9.2998 23.7998 -9.2998c24.3008 0 50.7002 12.2002 81.4004 26.2002c11.2998 5.09961 25.0996 12.9004 41.0996 22c38.8008 22 87.2002 49.5 123.4 51.9004c2.7002 0.299805 4.7998 -1.30078 5.7002 -2.2002z" />
    <glyph glyph-name="baby-carriage" unicode="&#xf77d;" 
d="M496 352c8.7998 0 16 -7.2002 16 -16v-16c0 -8.7998 -7.2002 -16 -16 -16h-40c-4.40039 0 -8 -3.59961 -8 -8v-72c0 -50.5996 -23 -96.4004 -60.2998 -130.7c34.5996 -8.89941 60.2998 -40 60.2998 -77.2998c0 -44.2002 -35.7998 -80 -80 -80s-80 35.7998 -80 80
c0 8.90039 1.7002 17.2002 4.40039 25.2002c-21.5 -5.90039 -44.6006 -9.2002 -68.4004 -9.2002s-46.7998 3.2998 -68.4004 9.2002c2.60059 -8 4.40039 -16.2998 4.40039 -25.2002c0 -44.2002 -35.7998 -80 -80 -80s-80 35.7998 -80 80
c0 37.2998 25.7002 68.4004 60.2998 77.2998c-42.7002 39.2002 -60.0996 88.6006 -60.2998 138.7c-0.299805 77.2002 41.0996 156.2 99.7998 203.1c13.1006 10.4004 30.2998 14.8008 47.5 12c17.4004 -2.89941 32.6006 -12.7998 41.7998 -27.2998l104.101 -163.8h106.8v40
c0 30.9004 25.0996 56 56 56h40zM129.8 397.6c-45.3994 -36.1992 -73.8994 -86.8994 -80.3994 -141.6h186.899l-87.5996 138.1c-1.90039 2.90039 -5.40039 5.10059 -9.2002 5.7002c-2.2002 0.299805 -6.2002 0.5 -9.7002 -2.2002zM80 -16c17.5996 0 32 14.4004 32 32
s-14.4004 32 -32 32s-32 -14.4004 -32 -32s14.4004 -32 32 -32zM400 16c0 17.5996 -14.4004 32 -32 32s-32 -14.4004 -32 -32s14.4004 -32 32 -32s32 14.4004 32 32zM224 80c90.4004 0 165.2 56.0996 174.9 128h-349.801c9.7002 -71.9004 84.5 -128 174.9 -128z" />
    <glyph glyph-name="bells" unicode="&#xf77f;" horiz-adv-x="640" 
d="M638.4 134.1c4.59961 -12.8994 -1 -28.7998 -15.9004 -34.1992l-75 -27.3008c2.59961 -7.7998 4.5 -15.8994 4.5 -24.5996c0 -44.2002 -35.7998 -80 -80 -80c-33.5996 0 -62 20.9004 -73.7998 50.2002l-76.2998 -27.7998
c-14.7002 -5.40039 -29.4004 2.7998 -34.3008 15.8994c-4.09961 11.2002 0.600586 19.5 3.40039 26l-42.0996 15.2998c-12.4004 -28 -40.3008 -47.5996 -72.9004 -47.5996c-44.2002 0 -80 35.7998 -80 80c0 7.7002 1.40039 15 3.5 22l-81.7998 29.9004
c-15 5.39941 -20.6006 21.2998 -16 34.1992c2.09961 5.90039 6.39941 11.2002 12.8994 14.5c21 10.7002 58.2002 24.9004 87.4004 105c0.799805 2.2002 14.5996 40.5 15.4004 42.6006c19.6992 54.2002 70.7998 87.7998 125.3 87.7998
c15.0996 0 30.5996 -2.59961 45.5996 -8.09961c21.4004 -7.80078 39.2998 -20.8008 53.5 -36.8008c3.40039 1.5 6.40039 3.5 10 4.80078c15.1006 5.5 30.5 8.09961 45.6006 8.09961c54.3994 0 105.6 -33.5996 125.3 -87.7998
c0.700195 -2.10059 14.5996 -40.4004 15.3994 -42.6006c29.1006 -80.0996 66.4004 -94.1992 87.4004 -105c6.5 -3.2998 10.7998 -8.59961 12.9004 -14.5zM176 48c11.7998 0 21.7002 6.7002 27.2998 16.2998l-58.3994 21.2002
c-0.300781 -1.7998 -0.900391 -3.59961 -0.900391 -5.5c0 -17.5996 14.4004 -32 32 -32zM76.0996 161.6l226.5 -82.5996c1.2002 20.7002 -1.89941 47.2002 -15 83.2998c-0.799805 2.2002 -14.7998 40.5 -15.5996 42.6006c-18 49.5996 -4.40039 102.699 30 138.199
c-16.9004 17 -37.9004 24.8008 -59.4004 24.8008c-35.6992 0 -68 -22.6006 -80.1992 -56.2002c-9.80078 -27 -6.30078 -17.6006 -15.4004 -42.6006c-21.2002 -58.1992 -47.7002 -89.2998 -70.9004 -107.5zM504 48c0 2.90039 -0.700195 5.59961 -1.5 8.2002l-58.9004 -21.5
c4.90039 -10.9004 15.6006 -18.7002 28.4004 -18.7002c17.5996 0 32 14.4004 32 32zM347.5 50.9004l216.3 78.7998c-23.0996 18.2998 -49.7002 49.2998 -70.8994 107.6c-10.4004 28.7998 -5.7002 15.9004 -15.4004 42.6006c-16 43.8994 -64.7998 67.1992 -109.4 51
c-44.1992 -16.1006 -67.0996 -65.2002 -51 -109.4c10.1006 -27.5996 7 -19.0996 15.6006 -42.5996c21.2002 -58.3008 20.7998 -99.2002 14.7998 -128z" />
    <glyph glyph-name="blog" unicode="&#xf781;" 
d="M208.8 352c110.5 -8.2002 198.9 -96.7002 207.2 -207.1c0.599609 -9.10059 -7.09961 -16.8008 -16.2002 -16.8008h-16.2002c-8.5 0 -15.0996 6.7002 -15.7998 15.2002c-7.2002 85.4004 -75.0996 154.8 -160.399 160.7c-8.60059 0.5 -15.4004 7.2002 -15.4004 15.7998v16
c0 9.2002 7.7002 16.9004 16.7998 16.2002zM208.7 448c163.399 -8.5 294.8 -139.9 303.399 -303.3c0.400391 -9.10059 -7.19922 -16.7002 -16.2998 -16.7002h-16c-8.59961 0 -15.3994 6.90039 -15.7998 15.5c-6.7998 138.1 -118.4 248.7 -256.6 256.4
c-8.60059 0.5 -15.4004 7.19922 -15.4004 15.7998v16c0 9.09961 7.59961 16.7002 16.7002 16.2998zM137 224c82.5996 0 153.8 -66.5 150.9 -149c-2.60059 -75.4004 -63.5 -136.3 -138.9 -138.9c-82.5 -2.7998 -149 68.3008 -149 150.9v249c0 8.7998 7.2002 16 16 16h32
c8.7998 0 16 -7.2002 16 -16v-250.9c0 -47.0996 38.4004 -88.0996 85.4004 -84.8994c39.7998 2.7002 71.7998 34.5996 74.3994 74.5c3.10059 46.8994 -37.8994 85.2998 -84.8994 85.2998h-10.9004c-8.7998 0 -16 7.2002 -16 16v32c0 8.7998 7.2002 16 16 16h9z" />
    <glyph glyph-name="boot" unicode="&#xf782;" 
d="M415 184.2c57 -14.2002 97 -65.4004 97 -124.2v-78.7998c0 -8.5 -3.40039 -16.6006 -9.40039 -22.6006l-22.5996 -22.5996h-64l-32 32l-32 -32h-64l-32 32l-32 -32h-64l-32 32l-32 -32h-64l-22.5996 22.7002c-6 6 -9.40039 14.0996 -9.40039 22.5996v434.7
c0 17.7002 14.2998 32 32 32h320c17.7002 0 32 -14.2998 32 -32v-80c0 -17.7002 -14.2998 -32 -32 -32v-104zM48 400v-48h288v48h-288zM464 32v28.0996c0 36.8008 -24.9004 68.7002 -60.5996 77.6006l-89.3008 22.2998h-82.0996c-4.40039 0 -8 3.59961 -8 8v16
c0 4.40039 3.59961 8 8 8h72v32h-72c-4.40039 0 -8 3.59961 -8 8v16c0 4.40039 3.59961 8 8 8h72v48h-256v-272h416z" />
    <glyph glyph-name="cash-register" unicode="&#xf788;" 
d="M168 152c8.7998 0 16 -7.2002 16 -16v-16c0 -8.7998 -7.2002 -16 -16 -16h-16c-8.7998 0 -16 7.2002 -16 16v16c0 8.7998 7.2002 16 16 16h16zM136 200v-16c0 -8.7998 -7.2002 -16 -16 -16h-16c-8.7998 0 -16 7.2002 -16 16v16c0 8.7998 7.2002 16 16 16h16
c8.7998 0 16 -7.2002 16 -16zM232 200v-16c0 -8.7998 -7.2002 -16 -16 -16h-16c-8.7998 0 -16 7.2002 -16 16v16c0 8.7998 7.2002 16 16 16h16c8.7998 0 16 -7.2002 16 -16zM360 152c8.7998 0 16 -7.2002 16 -16v-16c0 -8.7998 -7.2002 -16 -16 -16h-16
c-8.7998 0 -16 7.2002 -16 16v16c0 8.7998 7.2002 16 16 16h16zM408 216c8.7998 0 16 -7.2002 16 -16v-16c0 -8.7998 -7.2002 -16 -16 -16h-16c-8.7998 0 -16 7.2002 -16 16v16c0 8.7998 7.2002 16 16 16h16zM511.4 68.5c0.399414 -3 0.599609 -6 0.599609 -9v-75.5
c0 -26.5 -21.5 -48 -48 -48h-416c-26.5 0 -48 21.5 -48 48v75.4004c0 3.09961 0.200195 6.09961 0.599609 9.09961l25.5 178.3c3.40039 23.6006 23.6006 41.2002 47.5 41.2002h70.4004v32h-96c-8.7998 0 -16 7.2002 -16 16v96c0 8.7998 7.2002 16 16 16h256
c8.7998 0 16 -7.2002 16 -16v-96c0 -8.7998 -7.2002 -16 -16 -16h-96v-32h230.4c23.8994 0 44.0996 -17.5996 47.5 -41.2002zM80 368h192v32h-192v-32zM73.5996 240l-22.7998 -160h410.4l-22.9004 160h-364.7zM464 -16v48h-416v-48h416zM328 200v-16
c0 -8.7998 -7.2002 -16 -16 -16h-16c-8.7998 0 -16 7.2002 -16 16v16c0 8.7998 7.2002 16 16 16h16c8.7998 0 16 -7.2002 16 -16zM264 152c8.7998 0 16 -7.2002 16 -16v-16c0 -8.7998 -7.2002 -16 -16 -16h-16c-8.7998 0 -16 7.2002 -16 16v16c0 8.7998 7.2002 16 16 16h16z
" />
    <glyph glyph-name="chart-network" unicode="&#xf78a;" horiz-adv-x="640" 
d="M568 80c39.7998 0 72 -32.2002 72 -72s-32.2002 -72 -72 -72s-72 32.2002 -72 72c0 3.2002 0.599609 6.40039 1 9.5l-82.2002 47c-20.2002 -20.0996 -48.0996 -32.5 -78.7998 -32.5c-61.9004 0 -112 50.0996 -112 112c0 36.2002 17.5 68.0996 44.2002 88.5l-33.5 71.7002
c-0.900391 -0.100586 -1.7998 -0.299805 -2.7002 -0.299805c-39.7998 0 -72 32.1992 -72 72c0 39.7998 32.2002 72 72 72s72 -32.2002 72 -72c0 -21.5 -9.59961 -40.6006 -24.5996 -53.8008l32.1992 -69c7.80078 1.80078 16 2.90039 24.4004 2.90039
c61.9004 0 112 -50.0996 112 -112c0 -13.7998 -2.90039 -26.7998 -7.40039 -39l78.2002 -44.7002c12.9004 12.1006 30.1006 19.7002 49.2002 19.7002zM232 352c13.2002 0 24 10.7998 24 24s-10.7998 24 -24 24s-24 -10.7998 -24 -24s10.7998 -24 24 -24zM336 80
c35.2998 0 64 28.7002 64 64s-28.7002 64 -64 64s-64 -28.7002 -64 -64s28.7002 -64 64 -64zM568 -16c13.2002 0 24 10.7998 24 24s-10.7998 24 -24 24s-24 -10.7998 -24 -24s10.7998 -24 24 -24zM513.6 245.2l-48 -36l-19.1992 25.5996l48 36zM576 256
c-35.2998 0 -64 28.7002 -64 64s28.7002 64 64 64s64 -28.7002 64 -64s-28.7002 -64 -64 -64zM152 128v32h48v-32h-48zM64 208c35.2998 0 64 -28.7002 64 -64s-28.7002 -64 -64 -64s-64 28.7002 -64 64s28.7002 64 64 64z" />
    <glyph glyph-name="chimney" unicode="&#xf78b;" 
d="M480 448c17.7002 0 32 -14.2998 32 -32v-160c0 -17.7002 -14.2998 -32 -32 -32v-256c0 -17.7002 -14.2998 -32 -32 -32h-384c-17.7002 0 -32 14.2998 -32 32v256c-17.7002 0 -32 14.2998 -32 32v160c0 17.7002 14.2998 32 32 32h448zM304 -16v80h-224v-80h224zM80 112h80
v112h-80v-112zM432 -16v80h-80v-80h80zM432 112v112h-224v-112h224zM464 272v128h-416v-128h416z" />
    <glyph glyph-name="compress-arrows-alt" unicode="&#xf78c;" 
d="M300 224c-6.59961 0 -12 5.40039 -12 12v136c0 10.7002 12.9004 16 20.5 8.40039l51 -51l113.9 113.899c6.19922 6.2002 16.3994 6.2002 22.5996 0l11.2998 -11.2998c6.2002 -6.2002 6.2002 -16.4004 0 -22.5996l-113.8 -113.9l50.9004 -51
c7.59961 -7.59961 2.2998 -20.5 -8.40039 -20.5h-136zM393.4 88.5l113.899 -114c6.2002 -6.2002 6.2002 -16.4004 0 -22.5996l-11.2998 -11.3008c-6.2002 -6.19922 -16.4004 -6.19922 -22.5996 0l-113.9 113.9l-51 -50.9004c-7.59961 -7.59961 -20.5 -2.2998 -20.5 8.40039
v136c0 6.59961 5.40039 12 12 12h135.9c10.6992 0 16 -12.9004 8.5 -20.5zM212 160c6.59961 0 12 -5.40039 12 -12v-135.9c0 -10.6992 -12.9004 -16 -20.5 -8.5l-51 51l-113.9 -113.899c-6.19922 -6.2002 -16.3994 -6.2002 -22.5996 0l-11.2998 11.2998
c-6.2002 6.2002 -6.2002 16.4004 0 22.5996l113.8 113.9l-50.9004 51c-7.59961 7.59961 -2.2998 20.5 8.40039 20.5h136zM118.6 295.5l-113.899 113.9c-6.2002 6.19922 -6.2002 16.3994 0 22.5996l11.2998 11.2998c6.2002 6.2002 16.4004 6.2002 22.5996 0l113.9 -113.8
l51 50.9004c7.59961 7.59961 20.5 2.2998 20.5 -8.40039v-136c0 -6.59961 -5.40039 -12 -12 -12h-136c-10.7002 0 -16 12.9004 -8.40039 20.5z" />
    <glyph glyph-name="deer" unicode="&#xf78e;" 
d="M384 288c8.7998 0 16 -7.2002 16 -16s-7.2002 -16 -16 -16s-16 7.2002 -16 16s7.2002 16 16 16zM465.4 339.5c27.3994 -7.7998 46.5996 -33.0996 46.5996 -61.5996v-29.9004c0 -35.2998 -28.7002 -64 -64 -64h-43.2002l-20.7998 -31.2998v-176.8
c0 -22.1006 -17.9004 -40 -40 -40h-64c-22.0996 0 -40 17.8994 -40 40v120h-52.7002l-10.7002 -28.6006l24 -80.7002c3.30078 -13.0996 0.600586 -25.5996 -7 -35.3994c-7.59961 -9.7002 -19.0996 -15.2998 -31.5 -15.2998h-63.7998
c-18.3994 0 -34.2998 12.5 -38.7998 30.2998l-24.5 81.5c-4.7002 18.3994 -3.59961 36.5 2.59961 53.2998l10.4004 27.7998v7.2002h-48v64c0 48.5 39.5 88 88 88h178.3l14.6006 24.4004l-63.8008 17.8994c-24.0996 6.7002 -40.8994 28.9004 -40.8994 53.9004v47.7998
c0 8.7998 7.2002 16 16 16h16c8.7998 0 16 -7.2002 16 -16v-47.7998c0 -3.60059 2.39941 -6.7002 5.7998 -7.7002l11 -3.09961l13.4004 16.7998c1.09961 1.39941 1.69922 3.2002 1.69922 5v36.7998c0 8.7998 7.2002 16 16 16h16c8.80078 0 16 -7.2002 16 -16v-36.7002
c0 -12.7002 -4.39941 -25.0996 -12.2998 -35l9.5 -2.7998l48.7998 24.4004c6.2002 3.09961 11.5 7.7998 15.4004 13.5996l18.0996 27.2002c4.90039 7.2998 14.8008 9.2998 22.2002 4.39941l13.2998 -8.89941c7.30078 -4.90039 9.30078 -14.9004 4.40039 -22.2002
l-18.0996 -27.0996c-2.5 -3.7002 -5.7002 -6.7002 -8.7002 -10zM464 248v29.9004c0 7.09961 -4.7998 13.5 -11.7002 15.3994l-83.2998 23.5c-16.2002 4.5 -33.2998 -3 -40.7998 -18l-34.5 -58.7998h-205.7c-22.0996 0 -40 -17.9004 -40 -40v-16h48l0.5 -68
l-14.0996 -31.7998c-2.80078 -7.60059 -3.30078 -15.7998 -1.30078 -23.7002l23.1006 -76.5h47.0996l-25.3994 85.2002l28.0996 74.7998h134v-160h48v183.3l43.2002 64.7002h68.7998c8.7998 0 16 7.2002 16 16z" />
    <glyph glyph-name="deer-rudolph" unicode="&#xf78f;" horiz-adv-x="576" 
d="M400 288c8.7998 0 16 -7.2002 16 -16s-7.2002 -16 -16 -16s-16 7.2002 -16 16s7.2002 16 16 16zM536 352c22.0996 0 40 -17.9004 40 -40s-17.9004 -40 -40 -40c-2.7998 0 -5.2998 1 -8 1.59961v-25.5996c0 -35.2998 -28.7002 -64 -64 -64h-42.0996l-21.9004 -38.4004
v-169.699c0 -22.1006 -17.9004 -40 -40 -40h-64c-22.0996 0 -40 17.8994 -40 40v120h-68.7002l-10.7002 -28.6006l24 -80.7002c3.30078 -13.0996 0.600586 -25.5996 -7 -35.3994c-7.59961 -9.7002 -19.0996 -15.2998 -31.5 -15.2998h-63.7998
c-18.3994 0 -34.2998 12.5 -38.7998 30.2998l-24.5 81.5c-4.7002 18.3994 -3.59961 36.5 2.59961 53.2998l10.4004 27.7998v7.2002h-48v64c0 48.5 39.5 88 88 88h194.3l14.5 24.4004l-63.7998 17.8994c-24.0996 6.7002 -40.9004 28.9004 -40.9004 53.9004v47.7998
c0 8.7998 7.2002 16 16 16h16c8.80078 0 16 -7.2002 16 -16v-47.7998c0 -3.60059 2.40039 -6.7002 5.80078 -7.7002l11 -3.09961l13.3994 16.7998c1.10059 1.39941 1.7002 3.2002 1.7002 5v36.7998c0 8.7998 7.2002 16 16 16h16c8.7998 0 16 -7.2002 16 -16v-36.7002
c0 -12.7002 -4.40039 -25.0996 -12.2998 -35l-0.700195 -0.899414l9 -2.5l1.2998 0.599609l48.7998 24.4004c6.2002 3.09961 11.5 7.7998 15.4004 13.5996l18.0996 27.2002c4.90039 7.2998 14.8008 9.2998 22.2002 4.39941l13.2998 -8.89941
c7.30078 -4.90039 9.30078 -14.7998 4.40039 -22.2002l-18.0996 -27.2002c-2.5 -3.7002 -5.7002 -6.7002 -8.7002 -10l68.7002 -19.3994c7.09961 -2 13.5996 -5.30078 19.3994 -9.40039c6.7002 12.9004 19.7002 22 35.2002 22zM480 248v29.9004
c0 7.09961 -4.7998 13.5 -11.7002 15.3994l-83.2998 23.5c-16.2002 4.5 -33.2998 -3 -40.7998 -18l-34.5 -58.7998h-221.7c-22.0996 0 -40 -17.9004 -40 -40v-16h48l0.5 -68l-14.0996 -31.7998c-2.80078 -7.60059 -3.30078 -15.7998 -1.30078 -23.7002l23.1006 -76.5
h47.0996l-25.3994 85.2002l28.0996 74.7998h150v-160h48v174.4l42.0996 73.5996h69.9004c8.7998 0 16 7.2002 16 16z" />
    <glyph glyph-name="dreidel" unicode="&#xf792;" horiz-adv-x="448" 
d="M443.3 400c6.2998 -6.2002 6.2998 -16.4004 0 -22.5996l-114.7 -114.7l77.6006 -77.6006c13.0996 -13.0996 13.0996 -34.1992 0 -47.2998l-150.2 -150.2c-12.5996 -12.5996 -29.5996 -19.5996 -47.2998 -19.5996h-141.8c-37 0 -66.9004 29.9004 -66.9004 66.9004v141.8
c0 17.7998 7 34.7998 19.5996 47.2998l150.301 150.2c6.5 6.5 15 9.7998 23.5996 9.7998c8.5 0 17.0996 -3.2998 23.5996 -9.7998l77.6006 -77.6006l114.7 114.7c6.19922 6.2002 16.3994 6.2002 22.5996 0zM222.1 21.5l53.1006 53.2002l-168.5 168.5l-53.2002 -53.2002
c-3.5 -3.5 -5.5 -8.2998 -5.5 -13.2998v-141.8c0 -10.4004 8.5 -18.9004 18.9004 -18.9004h141.899c5 0 9.7002 1.90039 13.2998 5.5zM309.2 108.7l52.7998 52.7002l-168.6 168.5l-52.7002 -52.7002z" />
    <glyph glyph-name="dumpster" unicode="&#xf793;" horiz-adv-x="576" 
d="M560 288h-97.2998l-25.6006 128h98.9004c7.2998 0 13.7002 -5 15.5 -12.0996l24 -96c2.5 -10.1006 -5.09961 -19.9004 -15.5 -19.9004zM404.5 416l25.5996 -128h-126.1v128h100.5zM560 224c8.7998 0 16 -7.2002 16 -16v-16c0 -8.7998 -7.2002 -16 -16 -16h-26l-22 -176
v-16c0 -8.7998 -7.2002 -16 -16 -16h-32c-8.7998 0 -16 7.2002 -16 16v16h-320v-16c0 -8.7998 -7.2002 -16 -16 -16h-32c-8.7998 0 -16 7.2002 -16 16v16l-22 176h-26c-8.7998 0 -16 7.2002 -16 16v16c0 8.7998 7.2002 16 16 16h20l-4 32h512l-4 -32h20zM469.6 48
l20.1006 160h-403.3l20 -160h363.199zM16 288c-10.4004 0 -18 9.7998 -15.5 19.9004l24 96c1.7998 7.09961 8.2002 12.0996 15.5 12.0996h98.9004l-25.6006 -128h-97.2998zM272 416v-128h-126.1l25.5996 128h100.5z" />
    <glyph glyph-name="dumpster-fire" unicode="&#xf794;" horiz-adv-x="640" 
d="M418.7 343.9c-19.7002 -17.6006 -37.7002 -36.5 -53.9004 -55.8008h-60.7998v128h100.5l14.4004 -72zM461.3 343.9l-11.8994 10.5996l-12.3008 61.5h98.9004c7.2998 0 13.7002 -5 15.4004 -12.0996l24 -96c0.199219 -0.800781 -0.100586 -1.5 0 -2.30078
c-1 1 -2 2.2002 -3.10059 3.10059l-21.2998 19l-21.2998 -19c-5.90039 -5.2002 -11.6006 -10.7002 -17.2998 -16.2998c-15.6006 17.7998 -32.9004 35.1992 -51.1006 51.5zM272 416v-128h-126.1l25.5996 128h100.5zM106.4 48h198.8
c8.09961 -17.5996 18.7998 -33.7002 31.5996 -48h-208.8v-16c0 -8.7998 -7.2002 -16 -16 -16h-32c-8.7998 0 -16 7.2002 -16 16v16l-22 176h-26c-8.7998 0 -16 7.2002 -16 16v16c0 8.7998 7.2002 16 16 16h20l-4 32h308.6c-11.2998 -16.0996 -21 -32.2998 -28.8994 -48
h-225.3zM16 288c-10.4004 0 -18 9.7998 -15.5 19.9004l24 96c1.7998 7.09961 8.2002 12.0996 15.5 12.0996h98.9004l-25.6006 -128h-97.2998zM551.1 284.8c51.8008 -46.2002 88.9004 -121.8 88.8008 -158.399c0 -87.5 -71.6006 -158.4 -160 -158.4
c-88.4004 0 -160 70.9004 -160 158.4c0 49.2998 49.7998 130.899 120 193.6c27.3994 -24.4004 51.5 -50.5996 71 -76.4004c11.8994 14 25.2998 27.9004 40.1992 41.2002zM480 16c61.7998 0 112 49.5 112 110.3c0 14.7998 -15.7998 53.5 -42.2002 88.7998
c-2 -2.2998 -0.5 -0.599609 -41.0996 -48.3994c-38 50.3994 -46.1006 62.3994 -68.5 86.0996c-47.2998 -51.7002 -72.2002 -103.8 -72.2002 -126.399c0 -60.9004 50.2002 -110.4 112 -110.4z" />
    <glyph glyph-name="ear-muffs" unicode="&#xf795;" horiz-adv-x="640" 
d="M621.4 142.8c15.0996 -15 23.5996 -38.7998 15.5996 -63.2002c7.7998 -24.2998 -0.5 -48 -15.7002 -63c-5.2002 -30.2998 -28.2002 -45 -44.8994 -50.0996c-0.5 -0.700195 -23.7002 -32.5996 -66 -23.9004c-8.90039 -4.2998 -18.8008 -6.59961 -29 -6.59961
c-36 0 -65.3008 28.2998 -65.3008 63.0996c0 6.90039 1.2002 13.7002 3.60059 20.2002c-6.40039 17.7002 -2.7998 32.9004 -0.200195 40.5c-6.09961 17.6006 -2.59961 32.7002 0 40.2998c-2.59961 7.60059 -6.2002 22.9004 0.200195 40.5
c-2.40039 6.5 -3.60059 13.3008 -3.60059 20.2002c0 34.7998 29.3008 63.1006 65.3008 63.1006h14.6992c0 97 -79 176 -176 176c-97.0996 0 -176 -79 -176 -176h14.7002c36 0 65.2998 -28.3008 65.2998 -63.1006c0 -6.89941 -1.19922 -13.7002 -3.59961 -20.2002
c6.40039 -17.6992 2.90039 -32.8994 0.200195 -40.5c2.59961 -7.59961 6.09961 -22.6992 0 -40.2998c2.59961 -7.59961 6.2002 -22.8994 -0.200195 -40.5c2.40039 -6.5 3.59961 -13.2998 3.59961 -20.2002c0 -34.7998 -29.2998 -63.0996 -65.2998 -63.0996
c-10.2998 0 -20.0996 2.2998 -29 6.59961c-42.2998 -8.69922 -65.5 23.2002 -66 23.9004c-16.7002 5.09961 -39.7002 19.7998 -44.8994 50.0996c-15.2002 15 -23.5 38.8008 -15.7002 63c-8.2002 24.4004 0.299805 48.2002 15.2998 63.2002
c6.40039 39.7002 43.5 49.9004 44.4004 50.2002c13.8994 18.4004 32.1992 22.2998 33.0996 22.5996v8.40039c0 123.5 100.5 223.9 224 224c123.5 -0.0996094 224 -100.5 223.9 -224v-8.40039c0.899414 -0.299805 19.2998 -4.19922 33.0996 -22.5996
c0.900391 -0.200195 38.0996 -10.5 44.4004 -50.2002zM167.5 134c24.4004 21 -7.7002 57.2002 -31.4004 35.7002c-16.0996 14.5996 -41.2998 2.5 -39.6992 -19.2998c-20.8008 7.69922 -38.2002 -13.1006 -30.5 -31.6006c-16.9004 -4.59961 -24.1006 -24.8994 -11.5 -38.7998
c-12.6006 -13.9004 -5.40039 -34.2002 11.5 -38.7002c-7.7002 -18.5996 10 -39.2998 30.5 -31.5996c-1.60059 -21.7998 23.6992 -33.7998 39.6992 -19.2998c23.7002 -21.5 55.9004 14.5996 31.4004 35.5996c11.0996 9.5 11.7002 25.9004 0 36
c11.0996 9.5 11.7002 25.9004 0 36c11.0996 9.5 11.7002 25.9004 0 36zM574.1 41.2002c16.9004 4.59961 24.1006 24.8994 11.5 38.7002c12.6006 13.8994 5.40039 34.1992 -11.5 38.7998c7.7002 18.5 -9.7998 39.3994 -30.5 31.5996
c1.60059 21.7998 -23.6992 33.7998 -39.6992 19.2998c-23.7002 21.6006 -55.8008 -14.5996 -31.4004 -35.5996c-11.7002 -10.0996 -11.0996 -26.5 0 -36c-11.7002 -10.0996 -11.0996 -26.5 0 -36c-11.7002 -10.0996 -11.0996 -26.5 0 -36
c-24.5 -21 7.7002 -57.0996 31.4004 -35.7002c16.0996 -14.5996 41.2998 -2.5 39.6992 19.2998c20.6006 -7.59961 38.3008 13 30.5 31.6006z" />
    <glyph glyph-name="ethernet" unicode="&#xf796;" 
d="M496 256c8.7998 0 16 -7.2002 16 -16v-224c0 -8.7998 -7.2002 -16 -16 -16h-480c-8.7998 0 -16 7.2002 -16 16v224c0 8.7998 7.2002 16 16 16h48v48c0 8.7998 7.2002 16 16 16h48v48c0 8.7998 7.2002 16 16 16h224c8.7998 0 16 -7.2002 16 -16v-48h48
c8.7998 0 16 -7.2002 16 -16v-48h48zM464 48v160h-64v64h-64v64h-160v-64h-64v-64h-64v-160h48v112h32v-112h64v112h32v-112h64v112h32v-112h64v112h32v-112h48z" />
    <glyph glyph-name="fireplace" unicode="&#xf79a;" horiz-adv-x="640" 
d="M342.3 136.4c8.5 10.1992 18.2002 20.3994 28.9004 30c37.2998 -33.6006 64 -88.6006 64 -115.2c0 -63.6006 -51.6006 -115.2 -115.2 -115.2s-115.2 51.5996 -115.2 115.2c0 35.7998 35.9004 95.2002 86.4004 140.8c19.7002 -17.7998 37.0996 -36.7998 51.0996 -55.5996z
M357.8 -0.5c24.1006 17.5996 29.7002 51.7998 16.2998 78.4004c-1.59961 3.2998 -3.5 6.69922 -5.5 10.1992l-28.6992 -34.1992s-44.9004 60 -48.3008 64.0996c-23.6992 -29.7002 -35.5996 -47.0996 -35.5996 -66.7998c0 -39.6006 28.7002 -64 64 -64
c14.0996 0 27.2002 4.59961 37.7998 12.2998zM624 448c8.7998 0 16 -7.2002 16 -16v-112c0 -8.7998 -7.2002 -16 -16 -16h-16v-343.9c0 -13.2998 -10.7002 -24 -24 -24h-80c-13.2998 0 -24 10.7002 -24 24v104c0 88.4004 -71.5996 160 -160 160
c-5.2002 0 -10.5 -0.299805 -15.7998 -0.799805c-83.2998 -8 -144.2 -83 -144.2 -166.7v-96.5996c0 -13.2998 -10.7002 -24 -24 -24h-80c-13.2998 0 -24 10.7002 -24 24v344h-16c-8.7998 0 -16 7.2002 -16 16v112c0 8.7998 7.2002 16 16 16h608zM560 -16v320h-480v-320h32
v73.0996c0 109.9 82.5 203.9 187.7 213.9c6.7998 0.700195 13.5996 1 20.2998 1c114.7 0 208 -93.2998 208 -208v-80h32zM592 352v48h-544v-48h544z" />
    <glyph glyph-name="frosty-head" unicode="&#xf79b;" horiz-adv-x="384" 
d="M368 208c8.7998 0 16 -7.2002 16 -16.0996v-16c0 -8.80078 -7.2002 -16 -16 -16h-12.9004c4.2002 -10.5 7.80078 -21.3008 9.80078 -32.7002c13.2998 -73.6006 -18.9004 -140.101 -72.8008 -177.7c-12.5996 -8.7998 -27.6992 -13.5996 -43.0996 -13.5996h-40.2998
c8.7002 12.5 19.7998 28 31.0996 48h9.2002c5.59961 0 11 1.69922 15.7002 5c41.8994 29.1992 62.2998 79 53.0996 129.8c-2.7002 14.7002 -8.2002 28.5996 -15.7998 41.2998h-218.8c-11.7998 -19.2998 -19.2002 -41.4004 -19.2002 -65.7002
c0 -44 22.2998 -84.5 59.7998 -108.3c1.5 -1 5 -2 10.4004 -2h9.89941c11.3008 -19.9004 22.5 -35.5 31.1006 -48h-41c-12.6006 0 -25.5 2.7002 -36.2002 9.5c-49.2002 31.2998 -82 86 -82 148.8c0 23.2998 4.90039 45.2998 13.0996 65.7002h-13.0996
c-8.7998 0 -16 7.2002 -16 16v16c0 8.7998 7.2002 16 16 16h32v208c0 17.7002 14.2998 32 32 32h224c17.7002 0 32 -14.2998 32 -32v-208h32zM288 208v64h-192v-64h192zM288 320v80h-192v-80h192zM192 80c20.5996 0 37.2998 -16.7002 37.2998 -37.2998
c0 -20.7002 -37.2998 -74.7002 -37.2998 -74.7002s-37.2998 54 -37.2998 74.7002c0 20.5996 16.7002 37.2998 37.2998 37.2998zM109.3 106.7c0 11.7002 9.60059 21.2998 21.2998 21.2998c11.7002 0 21.3008 -9.5 21.3008 -21.2998
c0 -11.7002 -9.5 -21.2998 -21.3008 -21.2998c-11.6992 0 -21.2998 9.5 -21.2998 21.2998zM274.7 106.7c0 -11.7998 -9.60059 -21.4004 -21.2998 -21.2998c-11.7002 0 -21.3008 9.5 -21.3008 21.2998c0 11.7002 9.5 21.2998 21.3008 21.2998
c11.6992 0 21.2998 -9.5 21.2998 -21.2998z" />
    <glyph glyph-name="gifts" unicode="&#xf79c;" horiz-adv-x="640" 
d="M608 224c17.7002 0 32 -14.2998 32 -32v-224c0 -17.7002 -14.2998 -32 -32 -32h-576c-17.7002 0 -32 14.2998 -32 32v352c0 17.7002 14.2998 32 32 32h61.4004l-30.7002 22c-7.2002 5.09961 -8.7998 15.0996 -3.7002 22.2998l9.2998 13
c5.10059 7.2002 15.1006 8.7998 22.2998 3.7002l32 -22.7998l-11.5 30.5996c-3.09961 8.2998 1.10059 17.5 9.40039 20.6006l15 5.59961c8.2998 3.09961 17.5 -1.09961 20.5996 -9.40039l19.9004 -53.0996l19.9004 53c3.09961 8.2998 12.2998 12.5 20.5996 9.40039
l15 -5.60059c8.2998 -3.09961 12.5 -12.2998 9.40039 -20.5996l-11.5 -30.6006l32 22.9004c7.19922 5.2002 17.1992 3.5 22.2998 -3.7002l9.2998 -13c5.2002 -7.2002 3.5 -17.2002 -3.7002 -22.2998l-30.7002 -22h61.4004c17.7002 0 32 -14.2998 32 -32v-1
c43.0996 -4.90039 68.5996 -48.2998 80 -74.2998c12 27.5996 39.7998 75.2998 87.9004 75.2998c45.0996 0 72.0996 -36.7002 72.0996 -72.2002c0 -8.2998 -1.7998 -16.2002 -4.40039 -23.7998h20.4004zM519.9 272c-18.6006 0 -35.7002 -27.7002 -44.5 -48h52.5996
c2.7002 1.40039 5.09961 3 7.2002 4.7998c7.2998 6.40039 8.7998 13.9004 8.7998 19c0 9.7002 -6.40039 24.2002 -24.0996 24.2002zM344.1 272c-17.6992 0 -24.0996 -14.5 -24.0996 -24.2002c0 -5.2002 1.5 -12.5996 8.7998 -19
c2.10059 -1.7998 4.5 -3.39941 7.2002 -4.7998h52.5996c-8.89941 20.5996 -25.7998 48 -44.5 48zM224 192c0 17.7002 14.2998 32 32 32h20.4004c-2.7002 7.59961 -4.40039 15.5 -4.40039 23.7998c0 21 9.7002 42.2002 26.7002 56.2002h-250.7v-320h176v208zM408 -16v72h-136
v-72h136zM408 104v72h-136v-72h136zM431.3 224l0.700195 0.200195l0.700195 -0.200195h-1.40039zM592 -16v72h-136v-72h136zM592 104v72h-136v-72h136z" />
    <glyph glyph-name="gingerbread-man" unicode="&#xf79d;" horiz-adv-x="448" 
d="M192 352c8.7998 0 16 -7.2002 16 -16s-7.2002 -16 -16 -16s-16 7.2002 -16 16s7.2002 16 16 16zM224 112c8.7998 0 16 -7.2002 16 -16s-7.2002 -16 -16 -16s-16 7.2002 -16 16s7.2002 16 16 16zM446.7 221.4c4.7002 -29.2002 -3.5 -58.8008 -22.4004 -81.1006
c-11.3994 -13.2998 -25.7002 -23.2002 -41.7002 -29.0996l7 -8.5c18 -21.6006 26.6006 -50.2002 23.6006 -78.5c-2.90039 -27.1006 -15.9004 -50.9004 -36.7002 -67.1006c-17.5 -13.5996 -39.2998 -21.0996 -61.5 -21.0996c-29.7002 0 -57.7002 13.0996 -76.7998 36
l-14.2002 17l-14.2002 -17c-19 -22.9004 -47 -36 -76.7998 -36c-22.2002 0 -44 7.5 -61.4004 21c-20.7998 16.2002 -33.7998 40.0996 -36.6992 67.0996c-3 28.3008 5.59961 56.9004 23.5996 78.5l7 8.5c-16 5.90039 -30.4004 15.8008 -41.7002 29.1006
c-19.0996 22.3994 -27.2998 52 -22.5 81.2002c7.60059 46.6992 48.6006 81 98 82.5c-0.899414 6 -1.2998 12 -1.2998 18.0996c0 33.7002 13.0996 65.2998 36.9004 89.0996c23.7998 23.8008 55.3994 36.9004 89.0996 36.9004s65.2998 -13.0996 89.0996 -36.9004
c23.8008 -23.7998 36.9004 -55.3994 36.9004 -89.0996c0 -6.09961 -0.400391 -12.2002 -1.2998 -18.0996c49.5 -1.5 90.3994 -35.8008 98 -82.5zM348 153c67 0 72 103 -2.7998 103h-60.4004c-5.89941 0 -8.5 7.90039 -4.5 12.0996c13.4004 14 21.7002 33 21.7002 53.9004
c0 43.0996 -34.9004 78 -78 78s-78 -34.9004 -78 -78c0 -20.9004 8.2998 -39.9004 21.7002 -53.9004c4 -4.19922 1.2998 -12.0996 -4.5 -12.0996h-60.4004c-74.7998 0 -69.7002 -103 -2.7998 -103h31.0996c8.2002 0 14.8008 -6.59961 14.8008 -14.7998
c0 -3.5 -1.2002 -6.7998 -3.40039 -9.5l-47.2998 -56.7002c-18.9004 -22.7002 -17.5 -58.7998 5.7998 -77c25.5 -19.9004 56.9004 -10.4004 71.9004 7.7002l31.0996 37.2998c5.2002 6.2998 12.5996 9.40039 20 9.40039s14.7998 -3.2002 20 -9.40039l31 -37.2998
c15 -18 46.4004 -27.6006 71.9004 -7.7002c23.2998 18.2002 24.6992 54.2998 5.7998 77l-47.2998 56.7002c-2.2002 2.7002 -3.40039 6 -3.40039 9.5c0 8.2002 6.59961 14.7998 14.7998 14.7998h31.2002zM224 176c8.7998 0 16 -7.2002 16 -16s-7.2002 -16 -16 -16
s-16 7.2002 -16 16s7.2002 16 16 16zM256 352c8.7998 0 16 -7.2002 16 -16s-7.2002 -16 -16 -16s-16 7.2002 -16 16s7.2002 16 16 16zM224 240c8.7998 0 16 -7.2002 16 -16s-7.2002 -16 -16 -16s-16 7.2002 -16 16s7.2002 16 16 16z" />
    <glyph glyph-name="glass-champagne" unicode="&#xf79e;" horiz-adv-x="256" 
d="M200 -16c22.0996 0 40 -17.9004 40 -40c0 -4.40039 -3.59961 -8 -8 -8h-208c-4.40039 0 -8 3.59961 -8 8c0 22.0996 17.9004 40 40 40h48v114.6c-65 11.9004 -111.7 70.9004 -103 137.101l27 184.899c2.2998 15.7002 15.7998 27.4004 31.7002 27.4004h136.6
c15.9004 0 29.4004 -11.7002 31.7002 -27.4004l27 -185c8.59961 -66.0996 -38 -125.1 -103 -137.1v-114.5h48zM73.5 400l-11.7002 -80h132.4l-11.7002 80h-109zM66.5996 171.4c15.2002 -17.4004 37.6006 -27.4004 61.4004 -27.4004s46.2002 10 61.5 27.4004
c14.2998 16.3994 20.7002 37 17.9004 58.0996l-6.2002 42.5996h-146.3l-6.30078 -43.2998c-2.69922 -20.3994 3.7002 -41.0996 18 -57.3994z" />
    <glyph glyph-name="glass-cheers" unicode="&#xf79f;" horiz-adv-x="640" 
d="M587.6 33.9004c20.5 8.09961 43.8008 -2 51.8008 -22.5c1.59961 -4.10059 -0.400391 -8.80078 -4.5 -10.4004l-164 -64.4004c-4.10059 -1.59961 -8.80078 0.400391 -10.4004 4.5c-8.09961 20.6006 2 43.8008 22.5996 51.9004l29.8008 11.7002l-40.2002 102.3
c-7.90039 -1.59961 -15.9004 -2.5 -23.7998 -2.5c-52.7002 0 -101 34.2002 -114.2 87.4004l-14.7998 59.5996l-14.8008 -59.5996c-13.2998 -53.2002 -61.5996 -87.4004 -114.199 -87.4004c-7.80078 0 -15.8008 0.900391 -23.8008 2.5l-40.2998 -102.4l29.7998 -11.6992
c20.6006 -8.10059 30.7002 -31.3008 22.6006 -51.9004c-1.60059 -4.09961 -6.2998 -6.09961 -10.4004 -4.5l-163.8 64.4004c-4.09961 1.59961 -6.09961 6.2998 -4.5 10.3994c8.09961 20.6006 31.2998 30.7002 51.9004 22.6006l29.7998 -11.7002l40.5 103
c-50.9004 33.5 -70.1006 100.2 -40.2002 154.3l84.0996 152c5.80078 10.4004 16.7002 16.5 28 16.5c3.90039 0 7.90039 -0.700195 11.7002 -2.2002l113.7 -44.7002l113.7 44.7002c3.7998 1.5 7.7998 2.2002 11.7002 2.2002c11.3994 0 22.1992 -6.09961 28 -16.5
l84.0996 -152c29.9004 -54.0996 10.7002 -120.8 -40.2002 -154.3l40.5 -103zM258.6 203.5l12.5 50.0996l-121.5 47.8008l-25.0996 -45.3008c-9.2998 -16.7998 -10.7998 -36.2998 -4.09961 -54.7998c7.09961 -19.7002 22.6992 -35.5996 42.7998 -43.5
c9.09961 -3.5 18.3994 -5.2998 27.7998 -5.2998c32.2998 0 60.0996 21 67.5996 51zM282.8 300.7l14.4004 57.7998l-95.4004 37.5l-28.7998 -52.0996zM357.2 300.7l109.8 43.2002l-28.7998 52.0996l-95.4004 -37.5996zM476.8 157.9
c20.1006 7.89941 35.7002 23.7998 42.7998 43.6992c6.7002 18.5 5.2002 38 -4.09961 54.8008l-25.0996 45.2998l-121.5 -47.7998l12.5 -50.3008c7.5 -30 35.2998 -51 67.5996 -51c9.5 0 18.7998 1.80078 27.7998 5.30078z" />
    <glyph glyph-name="glass-whiskey" unicode="&#xf7a0;" 
d="M480 416c19.5 0 34.4004 -17.2002 31.7002 -36.5l-55.6006 -356.5c-4.5 -31.5 -31.5996 -54.9004 -63.3994 -54.9004h-273c-31.9004 0 -58.9004 23.4004 -63.4004 54.9004l-56 356.5c-2.7002 19.2998 12.2002 36.5 31.7002 36.5h448zM392.7 16
c7.89941 0 14.7002 5.90039 15.7998 13.7002l17.7998 114.3h-340.399l17.8994 -113.6c1.2002 -8.5 8 -14.4004 15.9004 -14.4004h273zM433.8 192l27.5 176h-410.6l27.7002 -176h355.399z" />
    <glyph glyph-name="glass-whiskey-rocks" unicode="&#xf7a1;" 
d="M480 416c19.5 0 34.4004 -17.2002 31.7002 -36.5l-55.6006 -356.5c-4.5 -31.5 -31.5996 -54.9004 -63.3994 -54.9004h-273c-31.9004 0 -58.9004 23.4004 -63.4004 54.9004l-56 356.5c-2.7002 19.2998 12.2002 36.5 31.7002 36.5h448zM392.7 16
c7.89941 0 14.7002 5.90039 16 13.7002l8.89941 57.2002l-20.1992 -20.2002c-12.1006 -12 -28.2002 -18.7002 -45.3008 -18.7002c-17.0996 0 -33.1992 6.59961 -45.2998 18.7002l-45.2998 45.2998c-3.59961 3.59961 -6.5 7.5 -9 11.5996
c-11.5996 -16.6992 -30.7998 -27.5996 -52.5 -27.5996h-64c-17.7998 0 -33.9004 7.2998 -45.5 19.0996l13.2998 -84.6992c1.2002 -8.5 8 -14.4004 15.9004 -14.4004h273zM120 160c0 -8.7998 7.2002 -16 16 -16h64c8.7998 0 16 7.2002 16 16v64c0 8.7998 -7.2002 16 -16 16
h-64c-8.7998 0 -16 -7.2002 -16 -16v-64zM295.4 168.6c-6.2002 -6.2998 -6.2002 -16.3994 0 -22.5996l45.2998 -45.2998c3 -3 7 -4.7002 11.2998 -4.7002s8.2998 1.7002 11.2998 4.7002l45.2998 45.2998c6.2002 6.2002 6.2002 16.4004 0 22.5996l-45.2998 45.3008
c-3 3 -7 4.69922 -11.2998 4.69922s-8.2998 -1.69922 -11.2998 -4.69922zM436.4 208.6l24.8994 159.4h-410.6l21.7998 -138.8c2.7002 32.7998 30 58.7998 63.5 58.7998h64c35.2998 0 64 -28.7002 64 -64v-19l42.5996 42.7998c12.1006 12 28.2002 18.7002 45.3008 18.7002
c17.0996 0 33.1992 -6.59961 45.2998 -18.7002z" />
    <glyph glyph-name="globe-snow" unicode="&#xf7a3;" horiz-adv-x="448" 
d="M232 368c13.2998 0 24 -10.7002 24 -24s-10.7002 -24 -24 -24s-24 10.7002 -24 24s10.7002 24 24 24zM104 288c13.2998 0 24 -10.7002 24 -24s-10.7002 -24 -24 -24s-24 10.7002 -24 24s10.7002 24 24 24zM328 304c13.2998 0 24 -10.7002 24 -24s-10.7002 -24 -24 -24
s-24 10.7002 -24 24s10.7002 24 24 24zM363.3 49l46.2998 -61.7998c15.8008 -21.1006 0.800781 -51.2002 -25.5996 -51.2002h-320c-26.4004 0 -41.4004 30.0996 -25.5996 51.2002l46.2998 61.7998c-51.5 41 -84.7002 104 -84.7002 175c0 123.7 100.3 224 224 224
s224 -100.3 224 -224c0 -71 -33.2002 -134 -84.7002 -175zM96 -16h256l-24 32h-208zM296.9 64c60.6992 27.7998 103.1 89 103.1 160c0 97 -79 176 -176 176s-176 -79 -176 -176c0 -71 42.4004 -132.2 103.1 -160h40.9004v48h-57.7998c-14.2002 0 -22 15 -12.9004 24.9004
l50.7002 55.0996h-15.2998c-10.7002 0 -16.5 11.2998 -9.7002 18.7002l67.4004 73.2002c5 5.5 14.2998 5.5 19.2998 0l67.3994 -73.2002c6.80078 -7.5 1 -18.7002 -9.69922 -18.7002h-15.4004l50.7998 -55.0996c9.10059 -9.90039 1.2998 -24.9004 -12.8994 -24.9004
h-57.9004v-48h40.9004z" />
    <glyph glyph-name="grip-lines" unicode="&#xf7a4;" horiz-adv-x="448" 
d="M432 160c8.7998 0 16 -7.2002 16 -16v-16c0 -8.7998 -7.2002 -16 -16 -16h-416c-8.7998 0 -16 7.2002 -16 16v16c0 8.7998 7.2002 16 16 16h416zM432 272c8.7998 0 16 -7.2002 16 -16v-16c0 -8.7998 -7.2002 -16 -16 -16h-416c-8.7998 0 -16 7.2002 -16 16v16
c0 8.7998 7.2002 16 16 16h416z" />
    <glyph glyph-name="hat-santa" unicode="&#xf7a7;" horiz-adv-x="640" 
d="M627 269.7c8.2002 -10.5 12.7998 -23.7002 12.7998 -37.7998c0 -14.1006 -4.7002 -27.3008 -13 -37.7002c-1.5 -13.2002 -7.39941 -25.7998 -17.3994 -35.7998c-9.80078 -9.80078 -22.4004 -15.9004 -36 -17.5c-10.4004 -8.2002 -23.5 -12.9004 -37.5 -12.9004
s-27.1006 4.7002 -37.5 12.9004c-13.6006 1.59961 -26.2002 7.69922 -36 17.5c-10 10 -15.9004 22.6992 -17.4004 35.8994c-2.40039 3.10059 -3.7998 6.7002 -5.59961 10.2002l-51.8008 20.2998l62.8008 -112.8h29.5996c17.7002 0 32 -16.0996 32 -36v-72
c0 -19.9004 -14.2998 -36 -32 -36h-448c-17.7002 0 -32 16.0996 -32 36v72c0 19.9004 14.2998 36 32 36h26.7998l79 189.6c29 69.4004 94.6006 114.301 167.4 114.4h0.200195c74.3994 0 120.899 -27 192.399 -93.2002c0.200195 0 0.299805 0.100586 0.400391 0.100586
c10.5 8.2998 23.5996 13.0996 37.7998 13.0996s27.2998 -4.7998 37.7998 -13.0996c13.6006 -1.5 26.1006 -7.60059 35.7998 -17.3008c10 -10 15.9004 -22.6992 17.4004 -35.8994zM464 64h-416v-48h416v48zM335.4 220.1c-7.10059 12.6006 -6.90039 27.6006 0.199219 39.9004
c7.30078 12.2998 20.6006 20 34.8008 20c5 0 10 -0.900391 14.7998 -2.7998l52.5 -20.6006c2.09961 4.5 4.09961 9.10059 7.2002 13c1.09961 9.5 5.19922 18.3008 10.6992 26.4004c-60.7998 54.9004 -95.8994 72 -150.3 72h-0.0996094
c-53.4004 0 -101.7 -33.2998 -123.101 -84.7998l-71.2998 -171.2h284.7zM582.3 219.5c5.7998 1.7002 9.90039 6.7002 9.90039 12.5s-3.90039 10.7998 -9.7002 12.5l-9.5 2.7998l4.7002 8.7002c2.89941 5.2998 2.09961 11.5 -2 15.5996
c-2.40039 2.40039 -5.60059 3.7002 -9 3.7002c-2.2998 0 -4.60059 -0.599609 -6.7002 -1.7002l-8.7002 -4.69922l-2.7998 9.5c-1.7002 5.7998 -6.7002 9.69922 -12.5 9.69922s-10.7998 -3.89941 -12.5 -9.69922l-2.7998 -9.5l-8.7002 4.69922
c-2.09961 1.10059 -4.40039 1.7002 -6.7002 1.7002c-3.39941 0 -6.59961 -1.2998 -9 -3.7002c-4.09961 -4 -4.89941 -10.2998 -2 -15.5996l4.7002 -8.7002l-9.5 -2.7998c-5.7998 -1.7002 -9.7002 -6.7002 -9.7002 -12.5s3.90039 -10.7998 9.7002 -12.5l9.5 -2.7998
l-4.7002 -8.7002c-2.89941 -5.2998 -2.09961 -11.5 2 -15.5996c2.5 -2.5 5.7998 -3.90039 9.40039 -3.90039c1.7998 0 3.7998 0.599609 6.2002 1.90039l8.69922 4.69922l2.80078 -9.5c1.69922 -5.7998 6.69922 -9.69922 12.5 -9.69922
c5.7998 0 10.7998 3.89941 12.5 9.69922l2.7998 9.5l8.7002 -4.69922c2.39941 -1.30078 4.39941 -1.90039 6.19922 -1.90039c3.5 0 6.90039 1.40039 9.40039 3.90039c4.09961 4 4.90039 10.2998 2 15.5996l-4.7002 8.7002z" />
    <glyph glyph-name="hat-winter" unicode="&#xf7a8;" 
d="M480 32c17.7002 0 32 -14.2998 32 -32v-32c0 -17.7002 -14.2998 -32 -32 -32h-448c-17.7002 0 -32 14.2998 -32 32v32c0 17.7002 14.2998 32 32 32h448zM195.2 342.8c-11 3.2998 -19.2002 13.1006 -19.2002 25.2002s8.2002 21.9004 19.2002 25.2002
c-5.5 10.0996 -4.40039 22.7998 4.2002 31.3994c8.59961 8.60059 21.2998 9.7002 31.3994 4.2002c3.2998 11 13.1006 19.2002 25.2002 19.2002s21.9004 -8.2002 25.2002 -19.2002c10.0996 5.5 22.7998 4.40039 31.3994 -4.2002
c8.60059 -8.59961 9.7002 -21.2998 4.2002 -31.3994c11 -3.2998 19.2002 -13.1006 19.2002 -25.2002s-8.2002 -21.9004 -19.2002 -25.2002c5.5 -10.0996 4.40039 -22.7998 -4.2002 -31.3994c-5.2998 -5.2002 -12.0996 -7.80078 -18.8994 -7.80078
c-4.2998 0 -8.5 1.5 -12.5 3.60059c-3.2998 -11 -13.1006 -19.2002 -25.2002 -19.2002s-21.9004 8.2002 -25.2002 19.2002c-3.89941 -2.10059 -8.09961 -3.60059 -12.5 -3.60059c-6.89941 0 -13.7002 2.60059 -18.8994 7.80078
c-8.60059 8.59961 -9.7002 21.2998 -4.2002 31.3994zM85.9004 112.1c-5.5 -26.3994 -5.90039 -45.5996 -5.90039 -48.0996h-48c0 2 2.2998 165.5 131.9 244.8c2.7998 -7.39941 7 -14.2002 12.8994 -20.0996c6.60059 -6.60059 14.6006 -11.2002 23.2002 -14
c-46.7998 -24.6006 -75.2002 -61.7998 -92.5996 -98.2002l20.5996 10.2998l64 -32l64 32l64 -32l64 32l20.5 -10.2002c-17.4004 36.4004 -45.7998 73.6006 -92.5996 98.2002c8.59961 2.7998 16.5996 7.40039 23.1992 14c5.90039 5.90039 10.2002 12.7998 13 20.1006
c129.601 -79.4004 131.9 -242.9 131.9 -244.9h-48c0 2.5 -0.400391 21.7002 -5.90039 48.0996l-42.0996 21.1006l-64 -32l-64 32l-64 -32l-64 32z" />
    <glyph glyph-name="holly-berry" unicode="&#xf7aa;" horiz-adv-x="448" 
d="M224 352c-26.5 0 -48 21.5 -48 48s21.5 48 48 48s48 -21.5 48 -48s-21.5 -48 -48 -48zM255.9 304c0 26.5 21.5 48 48 48s48 -21.5 48 -48s-21.5 -48 -48 -48s-48 21.5 -48 48zM144 256.1c-26.5 0 -48 21.5 -48 48s21.5 48 48 48s48 -21.5 48 -48s-21.5 -48 -48 -48z
M420 111.8c18.4004 -1.7998 35.0996 -21.7002 24.9004 -42.7998c-14.4004 -29.7998 -22 -64.0996 -22.2002 -99c-0.100586 -24.4004 -21.7002 -34.0996 -34.9004 -34.0996c-5.89941 0 -11.7998 1.5 -17.2998 4.5c-32.2002 17.5 -67.5 28.3994 -102.1 31.5
c-21.1006 1.7998 -33.8008 23.8994 -25 42.5996c5.7998 12.4004 10.5996 25.7998 14.0996 40c6.59961 26.2998 -73.7002 26.2998 -67.0996 0c3.5 -14.0996 8.19922 -27.5996 14.0996 -40c8.90039 -18.5996 -3.7998 -40.7002 -25 -42.5996
c-34.5996 -3.10059 -69.9004 -14 -102.1 -31.5c-5.5 -3 -11.4004 -4.5 -17.3008 -4.5c-13.3994 0 -34.7998 9.7998 -34.8994 34.0996c-0.200195 34.9004 -7.7998 69.2002 -22.2002 99c-9.7002 20.0996 5.7002 40.7998 25 42.7002
c14.2998 1.39941 29.0996 4.2002 43.9004 8.39941c7.09961 2 11.3994 8.7002 9.7998 15.2002c-3.5 14.2002 -8.2002 27.7002 -14.1006 40.1006c-8.7998 18.5 3.7002 40.6992 25 42.5996c78.5 7 93.8008 37.9004 131.4 37.9004c36.5 0 54 -31 131.4 -37.9004
c21.0996 -1.7998 33.7998 -23.9004 25 -42.5996c-5.80078 -12.3008 -10.6006 -25.8008 -14.1006 -40c-1.59961 -6.5 2.7002 -13.2002 9.7998 -15.2002c14.7002 -4.2002 29.5 -7 43.9004 -8.40039zM187.1 115.9c9.7002 2.7998 19.4004 5.09961 29.1006 6.89941
c-8.90039 23.9004 -14.5 49.5 -16.5 75.7002c-25.6006 -12 -52.5 -20.5 -79.5 -25.0996c3.09961 -8.5 5.7002 -17.3008 8 -26.3008c8 -31.7998 -11 -63.8994 -43.2002 -73c-9.7002 -2.7998 -19.4004 -5 -29.0996 -6.7998c9 -24 14.5 -49.2998 16.5 -75.7002
c25.7998 12 52.3994 20.4004 79.5 25c-3.10059 8.5 -5.7002 17.3008 -8 26.3008c-8 31.7998 11 63.8994 43.1992 73zM375.6 -8.40039c2 26.4004 7.5 51.7002 16.4004 75.7002c-9.7002 1.7998 -19.4004 4 -29.0996 6.7998c-32.2002 9.10059 -51.2002 41.2002 -43.2002 73
c2.2998 9 4.89941 17.8008 8 26.3008c-27 4.69922 -53.9004 13.1992 -79.5 25.0996c-0.100586 -0.5 -0.200195 -1 -0.200195 -1.5c5 -49.7002 21 -71 22.9004 -85c25.8994 -12.4004 40.2998 -40.7998 33.1992 -69.0996c-2.2998 -9 -4.89941 -17.8008 -8 -26.3008
c27.2002 -4.59961 53.8008 -13 79.5 -25z" />
    <glyph glyph-name="ice-skate" unicode="&#xf7ac;" horiz-adv-x="576" 
d="M568 32c4.40039 0 8 -3.59961 8 -8v-24c0 -35.2998 -28.7002 -64 -64 -64h-504c-4.40039 0 -8 3.59961 -8 8v32c0 4.40039 3.59961 8 8 8h88v48c-35.2998 0 -64 28.7002 -64 64v234.3c0 13.1006 8 24.9004 20.0996 29.7002l128.4 51.4004
c7.59961 3 15.7002 4.59961 23.7998 4.59961h99.7002v24c0 4.40039 3.59961 8 8 8h32c4.40039 0 8 -3.59961 8 -8v-176l87.2998 -21.9004c42.7002 -10.6992 72.7002 -49 72.7002 -93.0996v-53c0 -35.2998 -28.7002 -64 -64 -64h-16v-48h72c13.2998 0 24 10.7002 24 24v16
c0 4.40039 3.59961 8 8 8h32zM80 96c0 -8.7998 7.2002 -16 16 -16h352c8.7998 0 16 7.2002 16 16v53c0 22.0996 -15 41.2998 -36.4004 46.5996l-113.5 28.4004h-82.0996c-4.40039 0 -8 3.59961 -8 8v16c0 4.40039 3.59961 8 8 8h72v32h-72c-4.40039 0 -8 3.59961 -8 8v16
c0 4.40039 3.59961 8 8 8h72v48h-99.7002c-2 0 -4 -0.299805 -5.89941 -1.09961l-118.4 -47.4004v-223.5zM144 32v-48h240v48h-240z" />
    <glyph glyph-name="icicles" unicode="&#xf7ad;" 
d="M480 448c20 0 35.0996 -18.2002 31.5 -37.9004l-79.7998 -461.3c-1.7002 -8.5 -8.7002 -12.7998 -15.7002 -12.7998s-14 4.2998 -15.9004 12.7998l-58.7998 357.4l-38.0996 -134.8c-2.2998 -7.60059 -8.7998 -11.4004 -15.2998 -11.4004s-13 3.7998 -15.3008 11.4004
l-26.3994 95.6992l-38.7002 -190.699c-1.90039 -8.30078 -8.7998 -12.4004 -15.5996 -12.4004c-6.90039 0 -13.7002 4.09961 -15.6006 12.4004l-36.3994 181.1l-28.8008 -86.5996c-2.39941 -7.30078 -8.7998 -10.9004 -15.0996 -10.9004s-12.5996 3.7002 -15.0996 10.9004
l-79.5 235.899c-6.2002 20.5 9.19922 41.2002 30.5996 41.2002h448zM95.7998 276.8l41 123.2h-82.5zM199.2 276.7l25.0996 123.3h-64l26.7002 -133l5.09961 -25.2998zM295.3 319.3l22.7998 80.7002h-58.6992l29 -105.1zM416.8 144.3l44.2002 255.7h-86.4004l14.2002 -86z
" />
    <glyph glyph-name="igloo" unicode="&#xf7ae;" horiz-adv-x="640" 
d="M320 448c173.7 0 315.3 -139.3 319.6 -312h0.400391v-136c0 -35.2998 -28.7002 -64 -64 -64h-512c-35.2998 0 -64 28.7002 -64 64v136h0.400391c4.2998 172.7 145.899 312 319.6 312zM563.7 248h-43.7002v-112h71.5996c-1.19922 40.0996 -11.0996 78 -27.8994 112z
M392 390v-94h141.5c-35.5 45 -84.7998 78.4004 -141.5 94zM320 400c-86.5996 0 -163.6 -40.7998 -213.5 -104h237.5v102.8c-7.90039 0.700195 -15.9004 1.2002 -24 1.2002zM76.2998 248c-16.7998 -34 -26.7002 -71.9004 -27.8994 -112h71.5996v112h-43.7002zM192 64
c0 8.2002 0.900391 16.2002 2.40039 24h-146.4v-88c0 -8.7998 7.2002 -16 16 -16h128v80zM400 -16v80c0 44.0996 -35.9004 80 -80 80s-80 -35.9004 -80 -80v-80h160zM320 192c43.9004 0 82.5996 -22.2002 105.7 -56h46.2998v112h-304v-112h46.2998
c23.1006 33.7998 61.7998 56 105.7 56zM592 0v88h-146.4c1.5 -7.7998 2.40039 -15.7998 2.40039 -24v-80h128c8.7998 0 16 7.2002 16 16z" />
    <glyph glyph-name="mistletoe" unicode="&#xf7b4;" horiz-adv-x="576" 
d="M542.1 234.6c40 -40 45.4004 -99.3994 12.1006 -132.699c-14.7002 -14.6006 -34.5 -21.8008 -55.4004 -21.8008c-26.5996 0 -55 11.5 -77.3994 33.9004c-26 26 -38.6006 89.5996 -44.2002 130.9l-65.2002 65.1992v-144.399c28.4004 -32.7002 72 -89.2002 72 -127.3
c0 -56.6006 -43 -102.4 -96 -102.4s-96 45.7998 -96 102.4c0 38.0996 43.5996 94.5 72 127.3v144.3l-65.2002 -65.2002c-0.299805 -2.2998 -0.599609 -4.5 -1 -6.89941c3.2998 1.09961 6.60059 2.09961 10.2002 2.09961c17.7002 0 32 -14.2998 32 -32s-14.2998 -32 -32 -32
c-8.09961 0 -15.2002 3.2002 -20.7998 8.09961c-7.2998 -28.1992 -17.7002 -55.2998 -32.6006 -70.1992c-22.3994 -22.4004 -50.7998 -33.9004 -77.3994 -33.9004c-20.9004 0 -40.7002 7.2002 -55.2998 21.9004c-33.3008 33.2998 -27.9004 92.6992 12.0996 132.699
c26 26 89.5996 38.6006 130.9 44.2002l99.0996 99.1006v54.0996c0 8.7998 7.2002 16 16 16h16c8.7998 0 16 -7.2002 16 -16v-54.0996l99.2002 -99.1006c41.2998 -5.59961 104.899 -18.2002 130.899 -44.2002zM120.7 147.9c10.3994 10.3994 20.2998 43.3994 27 79.6992
c-36.4004 -6.59961 -69.4004 -16.5 -79.7998 -26.8994c-20.5 -20.5 -26.2002 -50.7998 -12.1006 -64.9004c6.40039 -6.39941 15.2002 -7.7998 21.4004 -7.7998c14.7998 0 31 7.40039 43.5 19.9004zM336 38.4004c0 13.5996 -20.7002 47.5996 -48 81.5
c-27.5996 -34 -48 -67.7002 -48 -81.5c0 -30 21.5 -54.4004 48 -54.4004s48 24.4004 48 54.4004zM520.2 135.8c14.0996 14.1006 8.39941 44.4004 -12 64.9004c-10.2998 10.2998 -43.4004 20.2998 -79.7002 26.8994c6.59961 -36.2998 16.5 -69.2998 26.9004 -79.6992
c12.3994 -12.5 28.5996 -19.9004 43.3994 -19.9004c6.2002 0 15 1.40039 21.4004 7.7998zM384 384c-17.7002 0 -32 14.2998 -32 32s14.2998 32 32 32s32 -14.2998 32 -32s-14.2998 -32 -32 -32z" />
    <glyph glyph-name="mitten" unicode="&#xf7b5;" horiz-adv-x="448" 
d="M416.8 263.3c36.7998 -30.7002 41.7998 -85.5996 11.1006 -122.399l-64.1006 -76.9004h-62.5l89.7002 107.7c13.7002 16.3994 11.5 41 -5 54.7002c-6.90039 5.7998 -15.7998 9 -24.7998 9c-11.6006 0 -22.5 -5.10059 -29.9004 -14l-38.5 -46.2002l-32.7002 141.5
c-11.2998 49 -54.2998 83.2998 -104.6 83.2998c-8.09961 0 -16.2002 -1 -24.2002 -2.7998c-57.7002 -13.2998 -93.7998 -71.1006 -80.5 -128.8l53.4004 -204.4h-49.6006l-50.5996 193.6c-19.2998 83.5 33 167.101 116.4 186.4c11.5996 2.59961 23.3994 4 35.0996 4
c72.7998 0 135 -49.5996 151.4 -120.5l12.5996 -54.7002c12.5996 6.90039 26.9004 10.6006 41.7002 10.6006c20.2998 0 40 -7.10059 55.5996 -20.1006zM368.1 32c8.80078 0 16 -7.2002 15.9004 -16v-64c0 -8.7998 -7.2002 -16 -16 -16h-320c-8.7998 0 -16 7.2002 -16 16v64
c0 8.7998 7.2002 16 16 16h320.1z" />
    <glyph glyph-name="mug-hot" unicode="&#xf7b6;" 
d="M400 256c61.7998 0 112 -50.2002 112 -112s-50.2002 -112 -112 -112h-16c0 -53 -43 -96 -96 -96h-192c-53 0 -96 43 -96 96v192c0 17.7002 14.2998 32 32 32h368zM336 32v176h-288v-176c0 -26.5 21.5 -48 48 -48h192c26.5 0 48 21.5 48 48zM400 80
c35.2998 0 64 28.7002 64 64s-28.7002 64 -64 64h-16v-128h16zM239.1 301.5c-2.69922 16.5996 -10.3994 31.9004 -22.3994 44.0996c-22.6006 23.1006 -36.7002 52.5 -40.6006 84.4004c-1.19922 9.5 6.5 18 16.3008 18h16.3994c8.2002 0 15 -5.90039 16.1006 -13.7998
c2.7998 -20.2002 12 -38.7998 26.3994 -53.5c20.2002 -20.5 32.7998 -46.5 36.6006 -74.7002c1.2998 -9.5 -6.5 -18 -16.3008 -18h-16.5c-8 0 -14.6992 5.7998 -16 13.5zM127.1 301.5c-2.69922 16.5996 -10.3994 31.9004 -22.3994 44.0996
c-22.6006 23.1006 -36.7002 52.5 -40.6006 84.4004c-1.09961 9.5 6.5 18 16.3008 18h16.3994c8.2002 0 15 -5.90039 16.1006 -13.7998c2.7998 -20.2002 12 -38.7998 26.3994 -53.5c20.2002 -20.5 32.7998 -46.5 36.6006 -74.7002c1.2998 -9.5 -6.5 -18 -16.3008 -18h-16.5
c-8 0 -14.6992 5.7998 -16 13.5z" />
    <glyph glyph-name="ornament" unicode="&#xf7b8;" horiz-adv-x="384" 
d="M288 294.1c57.2998 -33.1992 96 -95.0996 96 -166.1c0 -106 -86 -192 -192 -192s-192 86 -192 192c0 71 38.7002 132.9 96 166.1v41.9004c0 8.7998 7.2002 16 16 16h24.9004c-5.5 9.40039 -8.90039 20.2998 -8.90039 32c0 35.2998 28.7002 64 64 64s64 -28.7002 64 -64
c0 -11.7002 -3.40039 -22.5996 -8.90039 -32h24.9004c8.7998 0 16 -7.2002 16 -16v-41.9004zM192 400c-8.7998 0 -16 -7.2002 -16 -16s7.2002 -16 16 -16s16 7.2002 16 16s-7.2002 16 -16 16zM192 272c-42.4004 0 -80.2002 -18.7998 -106.5 -48h213
c-26.2998 29.2002 -64.0996 48 -106.5 48zM336 128c0 16.9004 -3.5 32.9004 -8.90039 48h-270.3c-5.2998 -15.0996 -8.7998 -31.0996 -8.7998 -48s3.40039 -32.9004 8.7998 -48h270.4c5.2998 15.0996 8.7998 31.0996 8.7998 48zM192 -16c42.4004 0 80.2002 18.7998 106.6 48
h-213.1c26.2998 -29.2002 64.0996 -48 106.5 -48z" />
    <glyph glyph-name="restroom" unicode="&#xf7bd;" horiz-adv-x="640" 
d="M328 448c8.7998 0 16 -7.2002 16 -16v-480c0 -8.7998 -7.2002 -16 -16 -16h-16c-8.7998 0 -16 7.2002 -16 16v480c0 8.7998 7.2002 16 16 16h16zM200.8 310.6c32.5 -15.3994 55.2002 -48.1992 55.2002 -86.5996v-112c0 -17.7002 -14.2998 -32 -32 -32h-16v-112
c0 -17.7002 -14.2998 -32 -32 -32h-96c-17.7002 0 -32 14.2998 -32 32v112h-16c-17.7002 0 -32 14.2998 -32 32v112c0 38.4004 22.7002 71.2002 55.2002 86.5996c-9.60059 14.1006 -15.2002 31.1006 -15.2002 49.4004c0 48.5996 39.4004 88 88 88s88 -39.4004 88 -88
c0 -18.2998 -5.59961 -35.2998 -15.2002 -49.4004zM128 400c-22.0996 0 -40 -17.9004 -40 -40s17.9004 -40 40 -40s40 17.9004 40 40s-17.9004 40 -40 40zM208 128v96c0 26.5 -21.5 48 -48 48h-64c-26.5 0 -48 -21.5 -48 -48v-96h48v-144h64v144h48zM638.8 117.7
c3.10059 -12.9004 0.200195 -26.2002 -8 -36.6006c-8.5 -10.7998 -21.3994 -17 -35.2998 -17h-3.5v-88c0 -22.0996 -17.9004 -40 -40 -40h-80c-22.0996 0 -40 17.9004 -40 40v88h-3.5c-13.9004 0 -26.7998 6.2002 -35.2998 17c-8.2002 10.4004 -11.1006 23.8008 -8 36.6006
l37.7002 134.7c4.89941 17.6992 15 32.6992 28.1992 44.2998c-16.5996 16 -27.0996 38.3994 -27.0996 63.2998c0 48.5996 39.4004 88 88 88s88 -39.4004 88 -88c0 -24.9004 -10.4004 -47.2998 -27.0996 -63.2998c13.0996 -11.6006 23.2998 -26.6006 28.1992 -44.2998z
M512 400c-22.0996 0 -40 -17.9004 -40 -40s17.9004 -40 40 -40s40 17.9004 40 40s-17.9004 40 -40 40zM544 112h46.5l-35.5996 127.5c-5.40039 19.0996 -23 32.5 -42.9004 32.5s-37.5996 -13.2998 -42.9004 -32.5l-36 -128.7l46.9004 1.2002v-128h64v128z" />
    <glyph glyph-name="rv" unicode="&#xf7be;" horiz-adv-x="640" 
d="M592.1 240l29.2002 -29.2002c12 -12 18.7002 -28.2002 18.7002 -45.2002v-101.6c0 -17.5996 -14.4004 -32 -32 -32h-33.5996c1 -5.2002 1.59961 -10.5 1.59961 -16c0 -44.2002 -35.7998 -80 -80 -80s-80 35.7998 -80 80c0 5.5 0.5 10.7998 1.59961 16h-163.199
c1 -5.2002 1.59961 -10.5 1.59961 -16c0 -44.2002 -35.7998 -80 -80 -80s-80 35.7998 -80 80v16l-77.2998 77.2002c-12 12 -18.7002 28.2998 -18.7002 45.2998v197.5c0 35.2998 28.7002 64 64 64h160v16c0 8.7998 7.2002 16 16 16h128c8.7998 0 16 -7.2002 16 -16v-16h124
c72.9004 0 132 -59.0996 132 -132c0 -24.2998 -19.7002 -44 -44 -44h-3.90039zM176 -16c17.5996 0 32 14.4004 32 32s-14.4004 32 -32 32s-32 -14.4004 -32 -32s14.4004 -32 32 -32zM368 80v208h223.8c-2.09961 44.5 -38.8994 80 -83.8994 80h-444
c-8.80078 0 -16 -7.2002 -16 -16v-197.5c0 -4.2998 1.69922 -8.2998 4.69922 -11.2998l63.2002 -63.2002h12.6006c13.3994 9.90039 29.6992 16 47.5996 16s34.2998 -6.09961 47.5996 -16h144.4zM572.2 192l-43.2002 43.2002c-3.09961 3.09961 -7.2002 4.7998 -11.5 4.7998
h-101.5v-48h156.2zM496 -16c17.5996 0 32 14.4004 32 32s-14.4004 32 -32 32s-32 -14.4004 -32 -32s14.4004 -32 32 -32zM592 80v64h-176v-64h32.4004c13.3994 9.90039 29.6992 16 47.5996 16s34.2998 -6.09961 47.5996 -16h48.4004zM304 320c8.7998 0 16 -7.2002 16 -16
v-96c0 -8.7998 -7.2002 -16 -16 -16h-192c-8.7998 0 -16 7.2002 -16 16v96c0 8.7998 7.2002 16 16 16h192zM272 240v32h-128v-32h128z" />
    <glyph glyph-name="scarf" unicode="&#xf7c1;" 
d="M509.7 52.2998c3.09961 -3.2002 3.09961 -8.2002 -0.200195 -11.2002l-11.2998 -11.2998c-3.10059 -3.09961 -8.2002 -3.09961 -11.2998 0l-68.8008 68.6006l-22.5996 -22.6006l68.7998 -68.5996c3.10059 -3.10059 3.10059 -8.2002 0 -11.2998l-11.2998 -11.3008
c-3.09961 -3.09961 -8.2002 -3.09961 -11.2998 0l-68.7998 68.6006l-22.5 -22.5l68.6992 -69.7002c3.10059 -3.09961 3.10059 -8.2002 0 -11.2998l-11.2998 -11.2998c-3.09961 -3.10059 -8.2002 -3.10059 -11.2998 0l-140.5 143.699l-140.7 -143.8
c-3.09961 -3.09961 -8.2002 -3.09961 -11.2998 0l-11.2998 11.2998c-3.10059 3.10059 -3.10059 8.2002 0 11.3008l68.7002 69.6992l-22.5 22.5l-68.8008 -68.5996c-3.09961 -3.09961 -8.19922 -3.09961 -11.2998 0l-11.2998 11.2998
c-3.09961 3.10059 -3.09961 8.2002 0 11.2998l68.7998 68.6006l-22.5996 22.5996l-68.7998 -68.5996c-3.10059 -3.10059 -8.2002 -3.10059 -11.3008 0l-11.2998 11.2998c-3.09961 3.09961 -3.09961 8.2002 0 11.2998l68.9004 68.4004l74.2998 74.2002l-24.0996 24.6992
c-48.6006 53.7002 -13 113.301 -11.5 115.801l43.5996 73.0996c4.2998 7.2002 9.90039 13.2998 16.7998 18c39.1006 26.4004 125.7 30.7998 171.5 0.200195c6.90039 -4.7002 12.5 -10.7998 16.7998 -18l43.6006 -73.1006c1.5 -2.5 37.0996 -62.0996 -11.5 -115.8
l-24.1006 -24.7002l74.3008 -74.1992zM361 310.9l-12 20.0996l-59.2002 -59.2002l42.7002 -42.7998l23.0996 23.5996c22 24.9004 9.7002 50.9004 5.40039 58.3008zM194.7 383.9l-6.2998 -10.4004l67.5996 -67.7998l67.7002 67.7998l-6.2998 10.5
c-12.5 20.9004 -110.101 20.9004 -122.7 -0.0996094zM221.7 115.6l0.799805 0.800781l-43.4004 44.2998l-40 -39.9004l44.4004 -44.2998zM328.5 76.5996l44.4004 44.4004l-209.801 210.1l-12 -20.0996c-4.39941 -7.5 -16.6992 -33.5 5.30078 -58.4004z" />
    <glyph glyph-name="sd-card" unicode="&#xf7c2;" horiz-adv-x="448" 
d="M384 448c35.2998 0 64 -28.7002 64 -64v-384c0 -35.2998 -28.7002 -64 -64 -64h-320c-35.2998 0 -64 28.7002 -64 64v320l128 128h256zM400 0v384c0 8.7998 -7.2002 16 -16 16h-236.1l-99.9004 -99.9004v-300.1c0 -8.7998 7.2002 -16 16 -16h320
c8.7998 0 16 7.2002 16 16zM320 272v96h48v-96h-48zM240 272v96h48v-96h-48zM160 272v96h48v-96h-48z" />
    <glyph glyph-name="shovel-snow" unicode="&#xf7c3;" 
d="M503.2 375.7c11.7002 -11.7002 11.7002 -30.7002 0 -42.4004l-24.5 -24.5c-17.7002 -17.7998 -43 -25.3994 -67.6006 -20.5c-6.5 1.2998 -12.5996 3.60059 -18.3994 6.40039l-96.7998 -96.7998l41.5 -41.5c17.7998 -17.7002 19.5996 -45.9004 4.19922 -65.8008
l-104.5 -135.199c-9.89941 -12.8008 -24.6992 -19.4004 -39.5 -19.4004c-12.6992 0 -25.5 4.7998 -35.2998 14.5996l-147.7 147.7c-21.2998 21.2998 -19 56.4004 4.80078 74.7998l135.3 104.4c9 7 19.7998 10.4004 30.5 10.4004
c12.7998 0 25.5996 -4.90039 35.2998 -14.6006l41.5 -41.5l96.7998 96.7998c-2.7998 5.80078 -5.09961 11.9004 -6.39941 18.4004c-1 5 -1.5 9.90039 -1.5 14.7998c0 19.7002 7.69922 38.7002 21.8994 52.9004l24.5 24.5c11.7002 11.7002 30.7002 11.7002 42.4004 0z
M303.4 122.5l-116.801 116.9l-1.39941 0.599609c-0.600586 0 -1 -0.200195 -1.2002 -0.400391l-135.2 -104.5l-0.200195 -2.89941l147.601 -147.5c0.700195 -0.200195 1.2998 -0.299805 1.7002 -0.299805c0.899414 0 1.09961 0.199219 1.19922 0.399414l104.5 135.2
c0.600586 0.700195 0.5 1.7998 -0.199219 2.5zM444.8 342.7l11.7998 11.7998l-38.0996 38.0996l-11.7998 -11.7998c-6.2998 -6.39941 -9 -15.3994 -7.2998 -24.2998c2.09961 -10.7002 10.3994 -19 21.0996 -21.0996c8.7998 -1.80078 17.9004 0.899414 24.2998 7.2998z
M153.7 182.3c9.39941 9.40039 24.5 9.40039 34 0c9.39941 -9.2998 9.39941 -24.5 0 -33.8994l-32 -32c-4.7002 -4.7002 -10.7998 -7 -17 -7s-12.2998 2.2998 -17 7c-9.40039 9.2998 -9.40039 24.5 0 33.8994zM180.4 57.7002
c-9.40039 9.39941 -9.40039 24.5996 0.0996094 33.8994l32 32c9.2998 9.40039 24.5 9.30078 33.9004 0c9.39941 -9.2998 9.39941 -24.5 0 -33.8994l-32 -32c-4.7002 -4.7002 -10.8008 -7 -17 -7c-6.2002 0 -12.3008 2.2998 -17 7z" />
    <glyph glyph-name="skating" unicode="&#xf7c5;" horiz-adv-x="448" 
d="M400 448c26.5 0 48 -21.5 48 -48s-21.5 -48 -48 -48s-48 21.5 -48 48s21.5 48 48 48zM152 304c-13.2998 0 -24 10.7002 -24 23.9004c0 13.1992 10.7998 24 24 24h180.6c13 0 24.6006 -7.7002 29.6006 -19.7002s2.2998 -25.7002 -6.90039 -34.9004l-88.5996 -88.5996
l72.7998 -66.2998c8.2002 -8.2002 12.5 -18.5 12.5 -29v-89.4004c0 -13.2002 -10.7002 -24 -24 -24s-24 10.7998 -24 24v85.7998l-87.7002 80c-11.7998 11.7002 -17.7998 27 -17.2002 42.5c0.600586 15.6006 7.7002 30.2998 19.5 40.4004l36.5 31.2998h-103.1zM187.5 174.6
c2.09961 -2.5 3.7998 -5.09961 6.09961 -7.39941l28.4004 -25.9004l-102.1 -102.2c-4.7002 -4.69922 -10.8008 -7 -17 -7c-6.2002 0 -12.3008 2.30078 -17 7c-9.40039 9.30078 -9.40039 24.5 0 33.9004zM400 0c8.7998 0 16 -7.2002 16 -16c0 -26.5 -21.5 -48 -48 -48h-96
c-8.7998 0 -16 7.2002 -16 16s7.2002 16 16 16h96c8.7998 0 16 7.2002 16 16s7.2002 16 16 16zM117.8 -8.59961c6.2998 6.2998 16.4004 6.19922 22.6006 0c6.19922 -6.2002 6.19922 -16.4004 0 -22.6006c-9.30078 -9.2998 -21.7002 -14 -33.9004 -14
s-24.5996 4.60059 -33.9004 14l-67.8994 67.9004c-6.2002 6.2002 -6.2002 16.3994 0 22.5996s16.3994 6.2002 22.5996 0l67.9004 -67.8994c6.2002 -6.2002 16.3994 -6.2002 22.5996 0z" />
    <glyph glyph-name="ski-jump" unicode="&#xf7c7;" 
d="M400 352c-26.5 0 -48 21.5 -48 48s21.5 48 48 48s48 -21.5 48 -48s-21.5 -48 -48 -48zM510.7 257.9c6.59961 -39.1006 -12.1006 -78.6006 -46.5 -98.3008l-429.2 -220.899c-3.5 -1.7998 -7.2002 -2.7002 -10.9004 -2.7002c-8.69922 0 -17.0996 4.7002 -21.3994 13
c-6.10059 11.7998 -1.5 26.2998 10.2998 32.2998l120 61.7002c-10.7998 5.7998 -16 18.5996 -11.2002 30.0996l53.2998 129.4c4.2002 10.0996 4.60059 10.5 5.90039 12.0996l68.7002 89.4004h-113.7c-13.2002 0 -24 10.7998 -24 24s10.7002 24 24 24h184
c13 0 24.5996 -7.7002 29.5996 -19.7002s2.30078 -25.7002 -6.89941 -34.8994l-121.2 -110.301c-0.799805 -0.799805 -1.59961 -1.7998 -2 -2.89941l-50.5 -122.601l272.2 140.2c16.0996 9.2002 25.3994 28.7998 22.0996 48.1006
c-2.2002 13.0996 6.60059 25.5 19.7002 27.6992c12.9004 2.30078 25.5 -6.59961 27.7002 -19.6992z" />
    <glyph glyph-name="ski-lift" unicode="&#xf7c8;" 
d="M112 320c-26.5 0 -48 21.5 -48 48s21.5 48 48 48s48 -21.5 48 -48s-21.5 -48 -48 -48zM256 448v-208l-32 -8v216h32zM191.6 66.5996c-29.0996 -9.69922 -33.5 -10.5996 -46.0996 -10.5996c-33.0996 0 -64.5 18.7998 -79.5 50l-63.5996 133
c-5.7002 12 -0.700195 26.2998 11.2998 32s26.2998 0.599609 32 -11.2998l63.5996 -133c8.7002 -18.2002 29.7002 -27.1006 48.7002 -20.7002l18.4004 6.2002c12.6992 4.2998 26.1992 -2.60059 30.3994 -15.2002s-2.59961 -26.2002 -15.2002 -30.4004zM488 160
c13.2002 0 24 -10.7998 23.9004 -24.0996c0 -33.9004 -21.4004 -64.6006 -53.2002 -76.4004l-330.5 -122.1c-2.7002 -1 -5.5 -1.5 -8.2998 -1.5c-9.7002 0 -18.9004 6 -22.5 15.6992c-4.60059 12.4004 1.7998 26.2002 14.1992 30.8008l152.301 56.2998v122.5l-98.2002 -24.5
c-11.1006 -2.90039 -22.7998 2.7002 -27.6006 13.2002l-47.2998 100.6c-8.39941 18.2998 3.10059 36.7002 15.7002 42.5c16.2002 7.5 35.0996 0.400391 42.5 -15.5996l39.7002 -85.5l93.5 23.3994c14.7998 3.7002 29.7998 -7.5 29.7998 -23.2998v-135.5l130.2 48.2002
c13 4.7998 21.7998 17.3994 21.7998 31.2998c0 13.2002 10.7998 24 24 24z" />
    <glyph glyph-name="skiing" unicode="&#xf7c9;" 
d="M432 352c-26.5 0 -48 21.5 -48 48s21.5 48 48 48s48 -21.5 48 -48s-21.5 -48 -48 -48zM120 356.4l-26.2998 23.0996c-2.2002 1.90039 -2.40039 5.2002 -0.5 7.40039c1.2998 1.5 3.2002 2.09961 5 1.69922l34.3994 -7h0.300781l11.0996 21.7002
c13.7002 -7.09961 21.2002 -21.0996 20.9004 -35.5996l72.1992 -35.7998l74.5 29.7998c14.2002 5.7002 30.3008 5.2998 44.3008 -1.2002s24.6992 -18.5 29.5996 -33.0996l18.0996 -54.4004l55.2002 -27.5996c11.9004 -5.90039 16.7002 -20.3008 10.7998 -32.2002
c-5.89941 -11.7998 -20.2998 -16.7002 -32.1992 -10.7002l-58.1006 29c-9.59961 4.7998 -16.7002 13 -20.0996 23.0996l-14.1006 42.3008l-61.0996 -24.4004l-132.7 66.2002c-11.7002 -9.7002 -28.3994 -12.1006 -42.7998 -4.7998zM505 -4
c9.2998 -9.40039 9.2998 -24.5996 0 -33.9004c-16.9004 -17 -39.7998 -26 -63 -26c-12.5996 0 -25.2002 2.60059 -37.0996 8.10059l-391.9 202.5c-11.7998 6 -16.4004 20.5 -10.2998 32.2998c6 11.7998 20.3994 16.4004 32.2998 10.2998l205 -106l49.0996 73.6006
l-79.7998 79.7998c-11.8994 11.8994 -17.2998 28.2998 -15.7002 44.8994l76.9004 -38.0996l57.2002 -57.2002c13.5 -13.3994 15.5996 -34.7002 5 -50.5l-49.7002 -74.5996l143 -73.9004c14.4004 -6.59961 33 -3.39941 45.0996 8.7002c9.30078 9.2998 24.5 9.40039 33.9004 0
z" />
    <glyph glyph-name="skiing-nordic" unicode="&#xf7ca;" horiz-adv-x="576" 
d="M336 352c-26.5 0 -48 21.5 -48 48s21.5 48 48 48s48 -21.5 48 -48s-21.5 -48 -48 -48zM552 32c13.2002 0 24 -10.7998 24 -24c0 -39.7002 -32.2998 -72 -72 -72h-480c-13.2002 0 -24 10.7002 -24 24s10.7998 24 24 24h42.9004l57.3994 287
c-3.2998 4.90039 -4.89941 10.5996 -4.09961 16.4004c0.799805 6.39941 4.09961 12 9.2002 15.8994l39.6992 30.4004c21.1006 16.2002 48.1006 22 73.7002 15.7998l71.4004 -21.2002c24.2002 -6.09961 45.2998 -23.5996 56.5996 -46.7002l28.2002 -57.6992h49
c13.2002 0 24 -10.8008 24 -24c0 -7.60059 -3.7998 -14.1006 -9.2998 -18.5l-28.2002 -197.4h69.5c13.2002 0 24 10.7998 24 24c0 13.2998 10.7998 24 24 24zM297.4 -16l29.1992 92.9004l-90.5 53.3994c-24.1992 14.2998 -34 44.5 -23 70.2998l41 95.7002l-23.7998 7
c-2.39941 0.600586 -5 0.900391 -7.59961 0.900391c-8.5 0 -17.2998 -3 -24.4004 -8.5l-39.7002 -30.4004c-0.899414 -0.700195 -2.09961 -0.899414 -3.09961 -1.5l-56 -279.8h33.0996l65.1006 137.6c6.2002 -7.2998 13.3994 -13.6992 22 -18.7998l17.3994 -10.2998
l-51.3994 -108.5h111.7zM402.1 -16l27.3008 192h-35.5c-15.1006 0 -29.2002 8.7998 -35.9004 22.4004l-28.2002 57.5996l-40.5 -101.4l67.1006 -39.5996c15.5996 -9.40039 23 -28.0996 18.1992 -45.2002l-26.8994 -85.7998h54.3994z" />
    <glyph glyph-name="sledding" unicode="&#xf7cb;" 
d="M505 28c9.2998 -9.40039 9.2998 -24.5996 0 -33.9004c-16.9004 -17 -39.7998 -26 -63 -26c-12.5996 0 -25.2002 2.60059 -37.0996 8.10059l-391.9 202.5c-11.7998 6 -16.4004 20.5 -10.2998 32.2998c6 11.7998 20.3994 16.4004 32.2998 10.2998l117.5 -60.5996
c-0.5 1.39941 -1.5 2.5 -1.7002 4c-1.09961 8.09961 2 16.2002 8.2002 21.5l100 85.7998h-107c-13.2002 0 -24 10.7998 -24 24s10.7002 24 24 24h160c16.2998 0 30.7998 -9.7002 37 -24.7002s2.7998 -32.0996 -8.7002 -43.5996l-67.7002 -67.7002h71.5
c22.1006 0 40 -17.9004 40 -40v-80c0 -7.5 -3.69922 -13.9004 -9.09961 -18.2998l51 -26.4004c14.4004 -6.59961 33 -3.39941 45.0996 8.7002c9.30078 9.2998 24.5 9.40039 33.9004 0zM336 65.7002v70.2998h-135.9zM400 320c-26.5 0 -48 21.5 -48 48s21.5 48 48 48
s48 -21.5 48 -48s-21.5 -48 -48 -48z" />
    <glyph glyph-name="sleigh" unicode="&#xf7cc;" horiz-adv-x="640" 
d="M612.7 97.2998c18.5 -14.7002 28.5996 -37.2002 27.2002 -61c-2.2002 -39 -36.9004 -68.2998 -75.9004 -68.2998h-516c-8.7998 0 -16 7.2002 -16 16v16c0 8.7998 7.2002 16 16 16h88v56.5c-60.2002 20.2002 -104 76.5996 -104 143.5v152h-16c-8.7998 0 -16 7.2002 -16 16
v16c0 8.7998 7.2002 16 16 16h44.2002c74.3994 0 141.3 -41.9004 174.6 -109.4c46.7998 -94.8994 181.2 -107.899 181.2 -42.5996v72c0 8.7998 7.2002 16 16 16h160c8.7998 0 16 -7.2002 16 -16v-16c0 -8.7998 -7.2002 -16 -16 -16h-32v-120
c0 -66.2002 -53.7998 -120 -120 -120v-48h127.3c13.6006 0 24.6006 11 24.6006 24.5996c0 7.5 -3.30078 14.5 -9.2002 19.2002l-9.2998 7.40039c-6.90039 5.5 -8 15.5996 -2.5 22.5l10 12.5c5.5 6.89941 15.5996 8 22.5 2.5zM80 216c0 -57.2998 46.7002 -104 104 -104h256
c39.7002 0 72 32.2998 72 72v120h-48v-40c0 -124.4 -203.7 -117.6 -272.3 21.4004c-22.1006 44.7998 -63.7998 74.6992 -111.7 81.1992v-150.6zM392 16v48h-208v-48h208z" />
    <glyph glyph-name="sms" unicode="&#xf7cd;" 
d="M135.4 229.5l22 -18.7998c8.39941 -7.2002 13.2998 -17.4004 13.2998 -28.1006c0 -21.2998 -19 -38.5996 -42.4004 -38.5996h-12.2998c-4.40039 0 -8 3.59961 -8 8v16c0 4.40039 3.59961 8 8 8h12.2998c5.90039 0 10.4004 3.5 10.4004 6.59961
c0 1.30078 -0.700195 2.60059 -2.10059 3.80078l-21.8994 18.7998c-8.40039 7.2002 -13.2998 17.3994 -13.2998 28.0996c0 21.2998 19 38.6006 42.3994 38.6006h12.2002c4.40039 0 8 -3.60059 8 -8v-16c0 -4.40039 -3.59961 -8 -8 -8h-12.2998
c-5.90039 0 -10.4004 -3.5 -10.4004 -6.60059c0 -1.2998 0.700195 -2.59961 2.10059 -3.7998zM304 272c8.7998 0 16 -7.2002 15.9004 -16v-104c0 -4.40039 -3.60059 -8 -8 -8h-16c-4.40039 0 -8 3.59961 -8 8v68.2002l-24.8008 -55.7998
c-2.89941 -5.90039 -11.3994 -5.90039 -14.2998 0l-24.7998 55.7998v-68.2002c0 -4.40039 -3.59961 -8 -8 -8h-16c-4.40039 0 -8 3.59961 -8 8v104c0 8.7998 7.2002 16 16 16h16c6.09961 0 11.5996 -3.40039 14.2998 -8.7998l17.7002 -35.4004l17.7002 35.4004
c2.7002 5.39941 8.2002 8.7998 14.2998 8.7998h16zM375.4 229.5l22 -18.7998c8.39941 -7.2002 13.2998 -17.4004 13.2998 -28.1006c0 -21.2998 -19 -38.5996 -42.4004 -38.5996h-12.2998c-4.40039 0 -8 3.59961 -8 8v16c0 4.40039 3.59961 8 8 8h12.2002
c5.89941 0 10.3994 3.5 10.3994 6.59961c0 1.30078 -0.699219 2.60059 -2.09961 3.80078l-21.9004 18.7998c-8.39941 7.2002 -13.2998 17.3994 -13.2998 28.0996c0 21.2998 19 38.6006 42.4004 38.6006h12.2998c4.40039 0 8 -3.60059 8 -8v-16c0 -4.40039 -3.59961 -8 -8 -8
h-12.2998c-5.90039 0 -10.4004 -3.5 -10.4004 -6.60059c0 -1.2998 0.700195 -2.59961 2.10059 -3.7998zM256 416c141.4 0 256 -93.0996 256 -208s-114.6 -208 -256 -208c-32.7998 0 -64 5.2002 -92.9004 14.2998c-29.0996 -20.5996 -77.5996 -46.2998 -139.1 -46.2998
c-9.59961 0 -18.2998 5.7002 -22.0996 14.5c-3.80078 8.7998 -2 19 4.59961 26c0.5 0.400391 31.5 33.7998 46.4004 73.2002c-33 35.0996 -52.9004 78.7002 -52.9004 126.3c0 114.9 114.6 208 256 208zM256 48c114.7 0 208 71.7998 208 160s-93.2998 160 -208 160
s-208 -71.7998 -208 -160c0 -42.2002 21.7002 -74.0996 39.7998 -93.4004l20.6006 -21.7998l-10.6006 -28.0996c-5.5 -14.5 -12.5996 -28.1006 -19.8994 -40.2002c23.5996 7.59961 43.1992 18.9004 57.5 29l19.5 13.7998l22.6992 -7.2002
c25.3008 -8 51.7002 -12.0996 78.4004 -12.0996z" />
    <glyph glyph-name="snowboarding" unicode="&#xf7ce;" 
d="M432 352c-26.5 0 -48 21.5 -48 48s21.5 48 48 48s48 -21.5 48 -48s-21.5 -48 -48 -48zM473.4 197l-95.8008 73.2998l-82.1992 -37.8994l62.6992 -47c12.4004 -9.30078 18.3008 -25.2002 15.1006 -40.4004l-21.7998 -102
c-2.40039 -11.0996 -12.1006 -18.5996 -22.9004 -18.9004l103.8 -37.7998c9.7002 -3.5 20.2002 -3 29.5 1.2998c12 5.60059 26.2998 0.400391 31.9004 -11.5996c5.59961 -12 0.399414 -26.2998 -11.6006 -31.9004c-11.5996 -5.5 -24 -8.19922 -36.5 -8.19922
c-10 0 -20 1.7998 -29.6992 5.2998l-364.801 132.8c-21.6992 8 -39 23.7998 -48.7998 44.7998c-5.59961 12 -0.399414 26.2998 11.6006 31.9004c12 5.7002 26.2998 0.399414 31.8994 -11.6006c4.40039 -9.39941 12.1006 -16.5 21.7998 -20l43.6006 -15.8994
c-2.2002 2.09961 -4.10059 4.5 -5.2998 7.5c-5.10059 12.2002 0.699219 26.2998 12.8994 31.3994l76.2998 31.8008c3 1.2998 4.90039 4.19922 4.90039 7.39941v54.9004c0 21.3994 11.9004 40.5996 31 50.0996l58.4004 29.2002l-34.8008 11.5996
c-10.0996 3.40039 -18.2998 10.5 -23.0996 20l-36.5 65.1006c-6.5 11.5996 -2.40039 26.2002 9.2002 32.7002c11.5 6.5 26.2002 2.2998 32.7002 -9.2002l35.8994 -64l67 -22.4004c15.6006 -5.2002 30.1006 -12.7998 43.2002 -22.5996l119.7 -91.6006
c10.5 -8.09961 12.5 -23.1992 4.39941 -33.6992c-4.7998 -6.2002 -11.8994 -9.40039 -19.0996 -9.40039c-5.09961 0 -10.2998 1.7002 -14.5996 5zM325.3 150l-77.3994 58v-26.7002c0 -22.7002 -13.5 -43 -34.4004 -51.7002l-76.2998 -31.7998
c-2.40039 -1 -4.7998 -1.2998 -7.2998 -1.5l182.8 -66.5c-6.5 5.5 -10.1006 14.2002 -8.2002 23.2002z" />
    <glyph glyph-name="snowflakes" unicode="&#xf7cf;" horiz-adv-x="640" 
d="M527.9 328v28.4004l-28 -16.1006c-3.80078 -2.2002 -8.7002 -0.899414 -10.9004 2.90039l-8 13.8994c-2.2002 3.80078 -0.900391 8.7002 2.90039 10.9004l27.8994 16l-27.8994 16c-3.80078 2.2002 -5.10059 7.09961 -2.90039 10.9004l8 13.8994
c2.2002 3.7998 7.09961 5.10059 10.9004 2.90039l28 -16.1006v28.4004c0 4.40039 3.59961 8 8 8h16c4.39941 0 8 -3.59961 8 -8v-28.4004l28 16.1006c3.7998 2.2002 8.69922 0.899414 10.8994 -2.90039l8 -13.8994c2.2002 -3.80078 0.900391 -8.7002 -2.89941 -10.9004
l-27.9004 -16l27.9004 -16c3.7998 -2.2002 5.09961 -7.09961 2.89941 -10.9004l-8 -13.8994c-2.2002 -3.7998 -7.09961 -5.10059 -10.8994 -2.90039l-28 16.1006v-28.4004c0 -4.40039 -3.60059 -8 -8 -8h-16c-4.40039 0 -8 3.59961 -8 8zM608.1 192l27.9004 -16
c3.7998 -2.2002 5.09961 -7.09961 2.90039 -10.9004l-8 -13.8994c-2.2002 -3.7998 -7.10059 -5.10059 -10.9004 -2.90039l-28 16.1006v-28.4004c0 -4.40039 -3.59961 -8 -8 -8h-16c-4.40039 0 -8 3.59961 -8 8v28.4004l-28 -16.1006
c-3.7998 -2.2002 -8.7002 -0.899414 -10.9004 2.90039l-8 13.8994c-2.19922 3.80078 -0.899414 8.7002 2.90039 10.9004l27.9004 16l-27.9004 16c-3.7998 2.2002 -5.09961 7.09961 -2.90039 10.9004l8 13.8994c2.2002 3.7998 7.10059 5.10059 10.9004 2.90039l28 -16.1006
v28.4004c0 4.40039 3.59961 8 8 8h16c4.40039 0 8 -3.59961 8 -8v-28.4004l28 16.1006c3.7998 2.2002 8.7002 0.899414 10.9004 -2.90039l8 -13.8994c2.19922 -3.80078 0.899414 -8.7002 -2.90039 -10.9004zM445.9 313.1c4.2998 -7.69922 1.69922 -17.5 -5.7002 -21.8994
l-39.2002 -23l34.0996 -9.2998c8.40039 -2.30078 13.3008 -11.1006 11.1006 -19.6006l-4.10059 -15.5c-2.2998 -8.5 -10.8994 -13.5996 -19.2998 -11.2998l-79.7002 21.7002l-71.8994 -42.2002l71.7998 -42.2002l79.7002 21.7002
c8.39941 2.2998 17.0996 -2.7998 19.2998 -11.2998l4.09961 -15.5c2.30078 -8.5 -2.69922 -17.2998 -11.0996 -19.6006l-34.0996 -9.2998l39.1992 -23c7.60059 -4.39941 10.1006 -14.2002 5.5 -21.7002l-7.89941 -13.8994c-4.40039 -7.7002 -14 -10.2998 -21.5 -5.90039
l-39.2002 23l9.09961 -34.7002c2.30078 -8.5 -2.69922 -17.2998 -11.0996 -19.5996l-15.2002 -4.09961c-8.39941 -2.30078 -17.0996 2.7998 -19.2998 11.2998l-21.2998 81l-71.9004 42.2002v-84.5l58.2998 -59.3008c6.10059 -6.19922 6.10059 -16.3994 0 -22.5996
l-11.0996 -11.2998c-6.09961 -6.2002 -16.0996 -6.2002 -22.2002 0l-24.8994 25.3994v-46.0996c0 -8.7998 -7 -16 -15.7002 -16h-15.7002c-8.7002 0 -15.7002 7.2002 -15.7002 16v45.9004l-24.8994 -25.4004c-6.10059 -6.2002 -16.1006 -6.2002 -22.2002 0l-11.1006 11.2998
c-6.09961 6.2002 -6.09961 16.4004 0 22.6006l58.3008 59.2998v84.5l-71.9004 -42.2002l-21.2998 -81c-2.2998 -8.5 -10.9004 -13.5996 -19.2998 -11.2998l-15.2002 4.09961c-8.40039 2.2998 -13.2998 11.1006 -11.1006 19.6006l9.10059 34.6992l-39.2002 -23
c-7.5 -4.39941 -17.2002 -1.7998 -21.5 5.90039l-7.90039 13.9004c-4.2998 7.69922 -1.69922 17.5 5.80078 21.8994l39.1992 23l-34.0996 9.2998c-8.40039 2.30078 -13.2998 11.1006 -11.0996 19.6006l4.09961 15.5c2.2998 8.5 10.9004 13.5996 19.2998 11.2998
l79.7002 -21.7002l71.9004 42.2002l-71.9004 42.2002l-79.7002 -21.7002c-8.39941 -2.2998 -17.0996 2.7998 -19.2998 11.2998l-4.09961 15.5c-2.30078 8.5 2.69922 17.2998 11.0996 19.6006l34.0996 9.09961l-39.1992 23c-7.60059 4.5 -10.1006 14.2002 -5.80078 21.9004
l7.90039 13.8994c4.40039 7.7002 14 10.2998 21.5 5.90039l39.2002 -23l-9.10059 34.7002c-2.2998 8.5 2.7002 17.2998 11.1006 19.5996l15.2002 4.09961c8.39941 2.30078 17.0996 -2.7998 19.2998 -11.2998l21.2998 -81l71.9004 -42.2002v84.5l-58.3008 59.3008
c-6.09961 6.19922 -6.09961 16.3994 0 22.5996l11.4004 11.2998c6.09961 6.2002 16.0996 6.2002 22.2002 0l24.8994 -25.3994v46.0996c0 8.7998 7 16 15.7002 16h15.7002c8.7002 0 15.7002 -7.2002 15.7002 -16v-45.9004l24.8994 25.4004
c6.10059 6.2002 16.1006 6.2002 22.2002 0l11.1006 -11.2998c6.09961 -6.2002 6.09961 -16.4004 0 -22.6006l-58.3008 -59.2998v-84.5l71.9004 42.2002l21.2998 81c2.2998 8.5 10.9004 13.5996 19.2998 11.2998l15.2002 -4.09961
c8.40039 -2.2998 13.2998 -11.1006 11.1006 -19.6006l-9.10059 -34.6992l39.2002 23c7.5 4.39941 17.2002 1.7998 21.5 -5.90039z" />
    <glyph glyph-name="snowman" unicode="&#xf7d0;" 
d="M256 160c8.7998 0 16 -7.2002 16 -16s-7.2002 -16 -16 -16s-16 7.2002 -16 16s7.2002 16 16 16zM256 224c8.7998 0 16 -7.2002 16 -16s-7.2002 -16 -16 -16s-16 7.2002 -16 16s7.2002 16 16 16zM224 360c8.7998 0 16 -7.2002 16 -16s-7.2002 -16 -16 -16
s-16 7.2002 -16 16s7.2002 16 16 16zM256 96c8.7998 0 16 -7.2002 16 -16s-7.2002 -16 -16 -16s-16 7.2002 -16 16s7.2002 16 16 16zM510.9 263.7c3.19922 -8.10059 -0.800781 -17.2002 -8.90039 -20.2002l-110.1 -44.9004c0 -0.799805 0.199219 -1.59961 0.199219 -2.39941
c0 -7.10059 -0.699219 -14.5 -2.09961 -22.2002c12.5996 -18.5996 21.2002 -39.2998 25.0996 -60.5996c11.5 -63.5 -14.1992 -125.7 -67 -162.301c-14 -9.7998 -30.3994 -14.8994 -47.3994 -14.8994h-89.9004c-15.5 0 -29.7002 3.7998 -41.2002 11.0996
c-47.0996 29.9004 -75.2998 80.7002 -75.2998 136.101c0 32.7998 9.60059 63.8994 27.7998 90.6992c-1.39941 7.7002 -2.09961 14.9004 -2.09961 22c0 0.800781 0.200195 1.60059 0.200195 2.40039l-110.101 44.9004c-8.19922 3.19922 -12.1992 12.2998 -8.89941 20.2998
l5.89941 14.5c3.30078 8 12.6006 11.8994 20.8008 8.7002l28.0996 -11.5v29c0 8.59961 7.2002 15.5996 16 15.5996h16c8.7998 0 16 -7 16 -15.5996v-46.9004c0 -0.5 -0.200195 -1 -0.299805 -1.5l26.2002 -10.7002c3.59961 9.2002 8 18.2002 13.6992 26.6006
c-7.59961 16.2998 -11.5996 34.0996 -11.5996 52.0996c0 68.4004 55.5996 124 124 124s124 -55.5996 124 -124c0 -18 -4 -35.7998 -11.5996 -52.0996c5.59961 -8.30078 10 -17.4004 13.6992 -26.6006l26.2002 10.7002c0 0.5 -0.299805 1 -0.299805 1.5v46.9004
c0 8.59961 7.2002 15.5996 16 15.5996h16c8.7998 0 16 -7 16 -15.5996v-29l28.2002 11.5c8.2002 3.19922 17.5 -0.700195 20.7998 -8.7002zM320.7 -9.7002c37.2002 25.7998 55.2002 69.6006 47 114.4c-3.10059 17.2998 -10.9004 34.2002 -22.5 48.8994l-7.2998 9.30078
l2.89941 11.5c2.10059 8.19922 3.10059 15.0996 3.10059 21.6992c0 26.8008 -12 46.3008 -22.2002 57.8008l-12 13.6992l9.89941 15.2002c8 12.5 12.3008 26.7998 12.3008 41.2998c0 41.9004 -34.1006 76 -76 76c-41.9004 0 -76 -34.0996 -76 -76
c0 -14.5996 4.19922 -28.7998 12.2998 -41.2998l9.89941 -15.2002l-12 -13.6992c-10.0996 -11.5 -22.1992 -30.9004 -22.1992 -57.8008c0 -6.5 1 -13.3994 3.09961 -21.5996l2.90039 -11.5l-7.30078 -9.2998c-16 -20.2002 -24.3994 -44.6006 -24.3994 -70.4004
c0 -38.7998 19.7998 -74.5996 53 -95.5996c4.7998 -3.10059 11.0996 -3.7002 15.5 -3.7002h89.8994c7.2002 0 14.2002 2.2002 20.1006 6.2998zM288 360c8.7998 0 16 -7.2002 16 -16s-7.2002 -16 -16 -16s-16 7.2002 -16 16s7.2002 16 16 16zM256 320
c8.7998 0 16 -7.2002 16 -16s-16 -32 -16 -32s-16 23.2002 -16 32s7.2002 16 16 16z" />
    <glyph glyph-name="snowmobile" unicode="&#xf7d1;" horiz-adv-x="640" 
d="M636.8 1.59961c5.2998 -7.09961 3.90039 -17.0996 -3.2002 -22.3994l-34.0996 -25.6006c-15.2002 -11.3994 -33.7998 -17.5996 -52.7998 -17.5996h-114.7c-8.7998 0 -16 7.2002 -16 16v16c0 8.7998 7.2002 16 16 16h54l-48 64h-124.8
c4.2998 -9.7998 6.7998 -20.5996 6.7998 -32c0 -44.0996 -35.9004 -80 -80 -80h-160c-44.0996 0 -80 35.9004 -80 80c0 33.5 20.7002 62.0996 49.9004 74c0.5 1.40039 0.799805 2.90039 1.5 4.2998l32 64c5.39941 10.9004 16.5 17.7002 28.5996 17.7002h11.4004
c-2 3.40039 -4.2002 6.7002 -5.5 10.5996c-4.80078 14.2002 -3.7002 29.4004 3 42.8008l29.7998 59.6992c8 16 23.3994 27.3008 41.0996 30.2002c17.5 2.7998 35.7998 -3 48.6006 -15.7002l55 -53.3994c1.5 -1.40039 3.5 -2.2002 5.59961 -2.2002h41l23.5 31.4004
l-35 69.8994c-5.90039 11.9004 -1.09961 26.2998 10.7998 32.2002c11.9004 6 26.2998 1.09961 32.2002 -10.7002l41 -82l152.7 -76.3994c5.39941 -2.7002 8.7998 -8.2002 8.7998 -14.3008v-77.5c0 -5.2998 -2.59961 -10.2998 -7.09961 -13.2998l-76.9004 -51.2998l54 -72
h0.700195c8.7002 0 17.0996 2.7998 24 8l34.0996 25.5996c7.10059 5.30078 17.1006 3.90039 22.4004 -3.19922zM220 256.4l-34.2002 -68.6006l23.9004 -11.8994h78.2998l18 24h-5c-14.7002 0 -28.5 5.59961 -39 15.7998zM240 -16c17.7002 0 32 14.2998 32 32
s-14.2998 32 -32 32h-160c-17.7002 0 -32 -14.2998 -32 -32s14.2998 -32 32 -32h160zM465.5 96l62.5 41.7002v40.5996l-129.6 64.9004l-86.4004 -115.2h-190.1l-16 -32h359.6zM240 352c-26.5 0 -48 21.5 -48 48s21.5 48 48 48s48 -21.5 48 -48s-21.5 -48 -48 -48z" />
    <glyph glyph-name="snowplow" unicode="&#xf7d2;" horiz-adv-x="640" 
d="M120 72c13.2998 0 24 -10.7002 24 -24s-10.7002 -24 -24 -24s-24 10.7002 -24 24s10.7002 24 24 24zM579.7 30.2002l55.5996 -55.6006c6.2002 -6.19922 6.2002 -16.3994 0 -22.5996l-11.2998 -11.2998c-6.2002 -6.2002 -16.4004 -6.2002 -22.5996 0l-55.6006 55.5996
c-16.5 16.5 -25.7998 38.9004 -25.7998 62.2002v45.5h-55.5c9.59961 -16.5 15.5 -35.5 15.5 -56c0 -61.9004 -50.0996 -112 -112 -112h-256c-61.9004 0 -112 50.0996 -112 112c0 38 19 71.5 48 91.7002v132.3c0 26.5 21.5 48 48 48h16v80c0 26.5 21.5 48 48 48h144.3
c19.2998 0 36.6006 -11.4004 44.2002 -29.0996l78.2998 -182.801c3.40039 -8 5.2002 -16.5 5.2002 -25.1992v-58.9004h88v45.5c0 23.2998 9.2998 45.7002 25.7998 62.2002l55.6006 55.5996c6.19922 6.2002 16.3994 6.2002 22.5996 0l11.2998 -11.2998
c6.2002 -6.2002 6.2002 -16.4004 0 -22.5996l-55.5996 -55.6006c-7.5 -7.5 -11.7002 -17.7002 -11.7002 -28.2998v-139c0 -10.5996 4.2002 -20.7998 11.7002 -28.2998zM160 400v-64.5l60.5996 -87.5h148.9l-65.0996 152h-144.4zM96 272v-113.6
c5.2998 0.699219 10.5 1.59961 16 1.59961h256c5.5 0 10.7002 -0.799805 16 -1.59961v41.5996h-176c-7.90039 0 -15.2002 3.7998 -19.7002 10.2998l-42.7002 61.7002h-49.5996zM368 -16c35.2998 0 64 28.7002 64 64s-28.7002 64 -64 64h-256
c-35.2998 0 -64 -28.7002 -64 -64s28.7002 -64 64 -64h256zM200 72c13.2998 0 24 -10.7002 24 -24s-10.7002 -24 -24 -24s-24 10.7002 -24 24s10.7002 24 24 24zM360 72c13.2998 0 24 -10.7002 24 -24s-10.7002 -24 -24 -24s-24 10.7002 -24 24s10.7002 24 24 24zM280 72
c13.2998 0 24 -10.7002 24 -24s-10.7002 -24 -24 -24s-24 10.7002 -24 24s10.7002 24 24 24z" />
    <glyph glyph-name="star-christmas" unicode="&#xf7d4;" 
d="M487.7 223.1c14.2998 -3.59961 24.2998 -16.3994 24.2998 -31.0996s-10 -27.5 -24.2998 -31.0996l-121.5 -30.4004l60.3994 -75.5c7.80078 -9.7998 7.10059 -23.2002 -1.69922 -32c-4.7002 -4.7002 -10.7002 -7.09961 -16.8008 -7.09961
c-5.2998 0 -10.5996 1.7998 -15.0996 5.39941l-75.4004 60.7002l-30.5 -121.8c-3.59961 -14.2998 -16.3994 -24.2998 -31.0996 -24.2998h-0.0996094c-14.7002 0 -27.5 10 -31 24.2998l-30.4004 121.5l-75.5 -60.4004c-4.5 -3.59961 -9.7998 -5.39941 -15.0996 -5.39941
c-6 0 -12.1006 2.39941 -16.8008 7.09961c-8.7998 8.7998 -9.5 22.2002 -1.69922 32l60.6992 75.4004l-121.8 30.5c-14.2998 3.59961 -24.2998 16.3994 -24.2998 31.0996s10 27.5 24.2998 31.0996l121.4 30.2002l-60.4004 75.5c-7.7998 9.7998 -7.09961 23.2002 1.7002 32
s22.2002 9.5 32 1.7002l75.4004 -60.7002l30.5 121.9c3.5 14.2998 16.1992 24.2998 31 24.2998h0.0996094c14.7002 0 27.5 -10 31.0996 -24.2998l30.3008 -121.4l75.5 60.4004c9.7998 7.7002 23.1992 7.09961 32 -1.7002c8.7998 -8.7998 9.5 -22.2002 1.69922 -32
l-60.6992 -75.4004zM287.6 160.4l126.5 31.5996l-126.5 31.5996l-31.5996 126.5l-31.5996 -126.5l-126.5 -31.5996l126.5 -31.5996l31.5996 -126.5z" />
    <glyph glyph-name="tenge" unicode="&#xf7d7;" horiz-adv-x="384" 
d="M372 304c6.59961 0 12 -5.40039 12 -12v-40c0 -6.59961 -5.40039 -12 -12 -12h-148v-260c0 -6.59961 -5.40039 -12 -12 -12h-40c-6.59961 0 -12 5.40039 -12 12v260h-148c-6.59961 0 -12 5.40039 -12 12v40c0 6.59961 5.40039 12 12 12h360zM372 416
c6.59961 0 12 -5.40039 12 -12v-40c0 -6.59961 -5.40039 -12 -12 -12h-360c-6.59961 0 -12 5.40039 -12 12v40c0 6.59961 5.40039 12 12 12h360z" />
    <glyph glyph-name="toilet" unicode="&#xf7d8;" horiz-adv-x="384" 
d="M152 384c4.40039 0 8 -3.59961 8 -8v-16c0 -4.40039 -3.59961 -8 -8 -8h-48c-4.40039 0 -8 3.59961 -8 8v16c0 4.40039 3.59961 8 8 8h48zM368 400h-16v-156.7c20.2002 -10.0996 32 -22.2002 32 -35.2998c0 -61.2998 -28.9004 -115.9 -73.7002 -151l24.2998 -79.7002
c6.30078 -20.5 -9.09961 -41.2998 -30.5996 -41.2998h-224c-21.5 0 -36.9004 20.7998 -30.5996 41.2998l24.2998 79.7002c-44.7998 35.0996 -73.7002 89.5996 -73.7002 151c0 13.0996 11.7998 25.2002 32 35.2998v156.7h-16c-8.7998 0 -16 7.2002 -16 16v16
c0 8.7998 7.2002 16 16 16h352c8.7998 0 16 -7.2002 16 -16v-16c0 -8.7998 -7.2002 -16 -16 -16zM80 400v-140.1c31.5 7.59961 70.2002 12.0996 112 12.0996s80.5 -4.5 112 -12.0996v140.1h-224zM101.6 -16h180.801l-14.5 47.5996
c-23.3008 -10 -48.9004 -15.5996 -75.9004 -15.5996s-52.5996 5.59961 -75.9004 15.5996zM192 64c63.5996 0 117.3 41.5996 136.3 98.9004c-34.7998 -11.7002 -83 -18.9004 -136.3 -18.9004s-101.5 7.2002 -136.3 18.9004c19 -57.3008 72.7002 -98.9004 136.3 -98.9004z
M192 180c77.0996 0 139.6 12.5 139.6 28s-62.5 28 -139.6 28s-139.6 -12.5 -139.6 -28s62.5 -28 139.6 -28z" />
    <glyph glyph-name="tram" unicode="&#xf7da;" 
d="M511.1 398.4c3.60059 -12.8008 -3.89941 -26 -16.6992 -29.6006l-214.4 -59.0996v-85.7002h168c17.7002 0 32 -14.2998 32 -32v-224c0 -17.7002 -14.2998 -32 -32 -32h-384c-17.7002 0 -32 14.2998 -32 32v224c0 17.7002 14.2998 32 32 32h168v72.5l-201.6 -55.5996
c-2.10059 -0.600586 -4.30078 -0.900391 -6.40039 -0.900391c-10.5 0 -20.2002 7 -23.2002 17.7002c-3.5 12.7002 4 26 16.7998 29.5l464 128c12.8008 3.39941 26 -4 29.5 -16.7998zM432 176h-352v-192h352v192zM144 64c-8.7998 0 -16 7.2002 -16 16v32
c0 8.7998 7.2002 16 16 16h32c8.7998 0 16 -7.2002 16 -16v-32c0 -8.7998 -7.2002 -16 -16 -16h-32zM240 64c-8.7998 0 -16 7.2002 -16 16v32c0 8.7998 7.2002 16 16 16h32c8.7998 0 16 -7.2002 16 -16v-32c0 -8.7998 -7.2002 -16 -16 -16h-32zM336 64
c-8.7998 0 -16 7.2002 -16 16v32c0 8.7998 7.2002 16 16 16h32c8.7998 0 16 -7.2002 16 -16v-32c0 -8.7998 -7.2002 -16 -16 -16h-32zM192 352c-17.7002 0 -32 14.2998 -32 32s14.2998 32 32 32s32 -14.2998 32 -32s-14.2998 -32 -32 -32zM288 384
c-17.7002 0 -32 14.2998 -32 32s14.2998 32 32 32s32 -14.2998 32 -32s-14.2998 -32 -32 -32z" />
    <glyph glyph-name="tree-christmas" unicode="&#xf7db;" 
d="M232 192c13.2998 0 24 -10.7002 24 -24s-10.7002 -24 -24 -24s-24 10.7002 -24 24s10.7002 24 24 24zM312 96c13.2998 0 24 -10.7002 24 -24s-10.7002 -24 -24 -24s-24 10.7002 -24 24s10.7002 24 24 24zM502.1 13.2002c11.1006 -14.5 13 -34.1006 4.90039 -50.4004
s-24.7002 -26.7002 -43 -26.7002h-416c-18.2002 0 -34.9004 10.3008 -43 26.7002c-8.09961 16.2998 -6.2002 35.9004 4.90039 50.4004l66.5 87c-10.6006 4.7998 -19.4004 13.2998 -24.3008 24.3994c-7.69922 17.4004 -4.39941 37.6006 8.40039 51.7002l113.6 124.9
l-12.3994 6.2002c-10.9004 5.39941 -17.7002 16.5 -17.7002 28.5996s6.7998 23.2002 17.7002 28.5996l43.7998 21.9004l21.9004 43.7998c5.39941 10.9004 16.5 17.7002 28.5996 17.7002s23.2002 -6.7998 28.7002 -17.7002l21.8994 -43.7998l43.8008 -21.9004
c10.8994 -5.39941 17.6992 -16.5 17.6992 -28.5996s-6.89941 -23.2002 -17.6992 -28.5996l-12.4004 -6.2002l113.5 -124.9c12.7998 -14.0996 16.0996 -34.2998 8.40039 -51.7002c-4.90039 -11.0996 -13.7002 -19.5996 -24.3008 -24.3994zM236.5 348.4l-24.7002 -12.4004
l24.6006 -12.2998c3.09961 -1.60059 5.69922 -4.10059 7.19922 -7.2002l12.4004 -24.7002l12.4004 24.5c1.59961 3.10059 4.09961 5.7002 7.19922 7.2002l24.7002 12.4004l-24.7002 12.3994c-3.09961 1.60059 -5.69922 4.10059 -7.19922 7.2002l-12.4004 24.7002
l-12.2998 -24.6006c-1.60059 -3.09961 -4.10059 -5.69922 -7.2002 -7.19922zM48 -16h416l-122.4 160h74.4004l-116.3 127.9l-15.1006 -30.2002c-5.39941 -10.9004 -16.5 -17.7002 -28.5996 -17.7002s-23.2002 6.90039 -28.5996 17.7002l-15.1006 30.2002l-116.3 -127.9
h74.4004z" />
    <glyph glyph-name="tree-decorated" unicode="&#xf7dc;" 
d="M500.3 15.4004c12.2998 -14.2002 15.2002 -34.2002 7.40039 -51.3008c-7.7998 -17.0996 -24.9004 -28.0996 -43.7002 -28.0996h-416c-18.7998 0 -35.9004 11 -43.7002 28.0996c-7.7998 17.1006 -4.89941 37.2002 7.40039 51.4004l46.5996 53.7002
c-9.2002 4.59961 -16.7998 12.2002 -21.5 21.7998c-8.09961 16.5 -6 36.2002 5.40039 50.5996l56.2002 71.5c-9.90039 5 -17.9004 13.3008 -22.5 23.9004c-7.60059 17.5996 -4 38.0996 9.19922 52l136 144c9.10059 9.59961 21.7002 15 34.9004 15
s25.7998 -5.40039 34.9004 -15.0996l136 -144c13.1992 -14 16.7998 -34.4004 9.19922 -52c-4.59961 -10.6006 -12.5996 -18.9004 -22.5 -23.9004l56.2002 -71.5c11.2998 -14.4004 13.4004 -34.0996 5.40039 -50.5996c-4.7002 -9.60059 -12.2998 -17.1006 -21.5 -21.8008z
M48 -16h416l-110.9 128h78.9004l-113.1 144h73.0996l-136 144l-136 -144h73.0996l-113.1 -144h78.9004zM304 72c13.2998 0 24 -10.7002 24 -24s-10.7002 -24 -24 -24s-24 10.7002 -24 24s10.7002 24 24 24zM192 184c13.2998 0 24 -10.7002 24 -24s-10.7002 -24 -24 -24
s-24 10.7002 -24 24s10.7002 24 24 24zM296 272c0 -13.2998 -10.7002 -24 -24 -24s-24 10.7002 -24 24s10.7002 24 24 24s24 -10.7002 24 -24z" />
    <glyph glyph-name="truck-plow" unicode="&#xf7de;" horiz-adv-x="640" 
d="M579.7 62.2002l55.5996 -55.6006c6.2002 -6.19922 6.2002 -16.3994 0 -22.5996l-11.2998 -11.2998c-6.2002 -6.2002 -16.4004 -6.2002 -22.5996 0l-55.6006 55.5996c-16.5 16.5 -25.7998 38.9004 -25.7998 62.2002v45.5h-40v-72c0 -53 -43 -96 -96 -96s-96 43 -96 96h-64
c0 -53 -43 -96 -96 -96s-96 43 -96 96c-17.7002 0 -32 14.2998 -32 32v128c0 17.7002 14.2998 32 32 32h96v128c0 17.5996 14.2998 32 32 32h126.9c14 0 27.0996 -7.5 34.2998 -19.5l84.3994 -140.5h42.4004c17.7002 0 32 -14.2998 32 -32v-40h40v45.5
c0 23.2998 9.2998 45.7002 25.7998 62.2002l55.6006 55.5996c6.19922 6.2002 16.3994 6.2002 22.5996 0l11.2998 -11.2998c6.2002 -6.2002 6.2002 -16.4004 0 -22.5996l-55.5996 -55.6006c-7.5 -7.5 -11.7002 -17.7002 -11.7002 -28.2998v-139
c0 -10.5996 4.2002 -20.7998 11.7002 -28.2998zM176 368v-112h173.6l-67.1992 112h-106.4zM128 16c26.5 0 48 21.5 48 48s-21.5 48 -48 48s-48 -21.5 -48 -48s21.5 -48 48 -48zM210.7 112h90.5996c16.6006 28.5996 47.2998 48 82.7002 48
c17.5996 0 33.7998 -5.09961 48 -13.2998v61.2998h-384v-91.0996c17.2002 26 46.5996 43.0996 80 43.0996c35.5 0 66.0996 -19.4004 82.7002 -48zM384 16c26.5 0 48 21.5 48 48s-21.5 48 -48 48s-48 -21.5 -48 -48s21.5 -48 48 -48z" />
    <glyph glyph-name="wreath" unicode="&#xf7e2;" horiz-adv-x="448" 
d="M298.9 63.2002c10.3994 3.39941 21.0996 -4.2998 21.0996 -15.2002v-96c0 -10.9004 -10.7002 -18.7002 -21.0996 -15.2002l-74.9004 31.2002l-74.9004 -31.2002c-10.3994 -3.39941 -21.0996 4.2998 -21.0996 15.2002v96c0 10.9004 10.7002 18.7002 21.0996 15.2002
l74.9004 -31.2002zM309.8 257.1c0.5 -5.19922 0 -3.69922 2.40039 -8c3.09961 -5.59961 7.7998 -14.0996 7.7998 -25.0996s-4.7002 -19.5 -7.7998 -25.0996c-2.40039 -4.5 -1.90039 -2.90039 -2.40039 -8c-0.599609 -6.40039 -1.59961 -16 -7.7998 -24.8008
c-6.2998 -9 -14.9004 -13 -20.7002 -15.6992c-4.39941 -2.10059 -3.2002 -1.2002 -6.2002 -4.7002c-4.2998 -4.90039 -10.6992 -12.2998 -21.1992 -15.7998c-11.1006 -3.7002 -21.8008 -1 -25.9004 -0.100586c-4.7998 1 -3.40039 1 -7.90039 0
c-6.19922 -1.39941 -15.5996 -3.39941 -26 0.100586c-10.3994 3.5 -16.8994 10.8994 -21.0996 15.7998c-3.2002 3.7998 -2 2.7998 -6.09961 4.7002c-5.7002 2.69922 -14.4004 6.7998 -20.7002 15.7998c-6.10059 8.7002 -7.10059 18.2998 -7.7998 24.7002
c-0.5 5.5 -0.100586 3.7998 -2.40039 8c-3.09961 5.59961 -7.7998 14.0996 -7.7998 25.0996s4.7002 19.5 7.7998 25.0996c2.40039 4.5 1.90039 2.90039 2.40039 8c0.599609 6.40039 1.59961 16 7.7998 24.8008c6.2998 9 14.8994 13 20.7002 15.6992
c4.39941 2.10059 3.19922 1.2002 6.19922 4.7002c4.30078 4.90039 10.7002 12.2998 21.2002 15.7998c10.2998 3.5 19.7002 1.40039 25.9004 0.100586c4.7998 -1 3.39941 -1 7.89941 0c6.2002 1.39941 15.6006 3.39941 26 -0.100586
c10.4004 -3.5 16.9004 -10.8994 21.1006 -15.7998c3.2002 -3.7998 2 -2.7998 6.09961 -4.7002c5.7002 -2.69922 14.4004 -6.7998 20.7002 -15.7998c6.09961 -8.7002 7.09961 -18.2998 7.7998 -24.7002zM261.8 194.4c1.40039 11.5996 1.2998 15.1992 9.40039 29.5996
c-8.2998 14.7002 -8.10059 18.5996 -9.40039 29.5996c-16.2002 8.10059 -20.5 13.5 -23.5 17.7002c-10.5 -1.7002 -18.2002 -1.7002 -28.7002 0c-7.89941 -10.8994 -19.3994 -15.8994 -23.5 -17.7002c-1.39941 -11.5996 -1.19922 -15.0996 -9.39941 -29.5996
c7.7002 -13.7002 7.89941 -17 9.39941 -29.5996c1.30078 -0.700195 14.8008 -5.80078 23.5 -17.7002c15.5 2.59961 13.2002 2.59961 28.7002 0c6.2002 8.59961 14.5 13.5996 23.5 17.7002zM436.8 266.3c7.2998 -12.7002 11.2002 -27.2002 11.2998 -42.3994
c0 -15.1006 -4 -29.6006 -11.1992 -42.3008c1.7998 -14.5 -0.100586 -29.3994 -5.90039 -43.3994s-15.2002 -26 -26.9004 -34.9004c-3.7998 -14.0996 -11.0996 -27.0996 -21.6992 -37.7002c-8.7002 -8.69922 -19.2002 -14.6992 -30.4004 -18.8994v1.2998
c0 17.9004 -10 33.4004 -24.5996 41.5996c24.5996 3.7002 34.8994 24.9004 30.5 44.6006c12.3994 2.09961 23.5 9.89941 28.6992 22.3994c5.10059 12.3008 3.2002 25.6006 -3.7998 35.8008c10.2998 6.69922 17.2002 18.2998 17.2002 31.5996
s-6.90039 24.9004 -17.2002 31.5996c7 10.2002 8.90039 23.5 3.7998 35.8008c-5.09961 12.5 -16.1992 20.5996 -28.5996 22.6992c2.59961 12.1006 -0.0996094 25 -9.5 34.4004c-13.5 13.5 -30.7002 10.2998 -34.4004 9.5
c-2.09961 12.4004 -10.1992 23.4004 -22.6992 28.5996c-12.9004 5.30078 -26.2002 2.80078 -35.8008 -3.7998c-6.69922 10.2998 -18.2998 17.2002 -31.5996 17.2002s-24.9004 -6.90039 -31.5 -17.2002c-9.59961 6.5 -22.9004 9.10059 -35.7998 3.7998
c-12.5 -5.09961 -20.6006 -16.1992 -22.7002 -28.5996c-3.7998 0.799805 -20.9004 4 -34.5 -9.5c-9.2998 -9.2998 -12.0996 -22.2998 -9.5 -34.4004c-12.4004 -2.09961 -23.4004 -10.1992 -28.5996 -22.6992c-5.10059 -12.3008 -3.2002 -25.6006 3.7998 -35.8008
c-10.2998 -6.69922 -17.2002 -18.2998 -17.2002 -31.5996s6.90039 -24.9004 17.2002 -31.5996c-7 -10.2002 -8.90039 -23.6006 -3.7998 -35.8008c5.19922 -12.5 16.2998 -20.2998 28.6992 -22.3994c-4.2998 -19.6006 5.7002 -40.7998 30.4004 -44.6006
c-3.5 -2 -7 -4.39941 -10 -7.2998c-9.2998 -9.09961 -14.4004 -21.2998 -14.4004 -34.2998v-1.2002c-11.1992 4.2002 -21.6992 10.2002 -30.3994 18.9004c-10.6006 10.5 -18 23.5996 -21.7002 37.7002c-11.7002 8.89941 -21.0996 20.7998 -26.9004 34.8994
c-5.7998 14 -7.69922 28.9004 -5.89941 43.4004c-7.2998 12.7002 -11.2002 27.2002 -11.2002 42.2998s3.90039 29.5996 11.0996 42.2998c-1.7998 14.5 0.100586 29.4004 5.90039 43.4004c5.90039 14.2002 15.2998 26.2002 27 35.2002
c3.7998 14.0996 11.0996 27 21.5996 37.5996c10.5 10.5 23.4004 17.7998 37.5 21.5996c8.90039 11.7002 20.9004 21 35.1006 26.9004c10.3994 4.2998 21.3994 6.5 32.7002 6.5c3.59961 0 7.19922 -0.299805 10.6992 -0.700195
c12.7002 7.2002 27.3008 11.2002 42.4004 11.2002s29.7002 -4 42.4004 -11.2998c3.5 0.5 7 0.700195 10.5996 0.700195c11.2002 0 22.2002 -2.2002 32.7002 -6.5c14.2002 -5.80078 26.2002 -15.2002 35.2002 -26.9004c14.3779 -3.77148 27.2529 -11.3408 37.3994 -21.5996
c10.5 -10.5 17.7998 -23.5 21.6006 -37.5c11.7998 -9 21.0996 -21 27 -35.2002c5.7998 -14 7.69922 -28.9004 5.89941 -43.4004z" />
  </font>
</defs>
</svg>
